<?xml version="1.0" standalone="no"?>
<!DOCTYPE svg PUBLIC "-//W3C//DTD SVG 1.1//EN" "http://www.w3.org/Graphics/SVG/1.1/DTD/svg11.dtd" >
<svg xmlns="http://www.w3.org/2000/svg">
<metadata></metadata>
<defs>
<font id="cordiadseregular" horiz-adv-x="0" >
<font-face units-per-em="2048" ascent="1638" descent="-410" />
<missing-glyph horiz-adv-x="373" />
<glyph unicode="&#xd;" horiz-adv-x="373" />
<glyph unicode=" "  horiz-adv-x="373" />
<glyph unicode="&#x09;" horiz-adv-x="373" />
<glyph unicode="&#xa0;" horiz-adv-x="373" />
<glyph unicode="!" horiz-adv-x="447" d="M167 0v127h113v-127h-113zM174 745v215h99v-215l-23 -507h-54z" />
<glyph unicode="&#x22;" horiz-adv-x="373" d="M52 804v156h98v-156l-20 -177h-58zM226 804v156h99v-156l-21 -177h-58z" />
<glyph unicode="#" horiz-adv-x="746" d="M32 281v61h124l53 261h-177v60h190l56 274h62l-56 -274h252l60 274h62l-56 -274h108v-60h-121l-53 -261h174v-61h-189l-59 -272h-59l59 272h-258l-59 -272h-59l59 272h-113zM216 342h256l54 261h-256z" />
<glyph unicode="$" horiz-adv-x="746" d="M50 260l81 11q44 -204 213 -220v411q-74 20 -102 30q-56 21 -92 51q-76 63 -76 179q0 149 123 216q60 32 147 39v57h50v-57q204 -18 254 -229l-82 -11q-34 149 -172 169v-374q136 -40 195 -86q85 -66 85 -184q0 -124 -80 -197q-74 -68 -200 -81v-120h-50v120 q-250 8 -294 276zM152 724q0 -104 100 -148q37 -16 92 -30v361q-192 -15 -192 -183zM394 50q201 28 201 205q1 89 -67 139q-36 24 -134 55v-399z" />
<glyph unicode="%" horiz-adv-x="1193" d="M83 718q1 106 45 176q52 82 152 83q102 0 154 -79q44 -66 44 -174q0 -252 -198 -252q-92 0 -144 68q-53 68 -53 178zM156 724q0 -194 126 -194q122 0 123 192q-1 192 -123 192q-126 0 -126 -190zM280 -36l562 1013h66l-560 -1013h-68zM712 212q0 162 92 227q43 30 104 30 q100 0 151 -75q47 -70 47 -178q0 -252 -198 -252q-100 0 -152 77q-44 67 -44 171zM784 217q0 -195 126 -195q123 0 123 192q0 194 -123 193q-126 0 -126 -190z" />
<glyph unicode="&#x26;" horiz-adv-x="895" d="M76 264q0 79 44 142.5t180 139.5q-106 138 -106 214q0 93 64 155t156 62q130 0 190 -101q26 -48 26 -110q0 -132 -207 -236q88 -108 213 -254q18 32 40 79l34 90l82 -17q-44 -128 -96 -218l77 -80q21 -24 83 -74l-56 -72q-78 60 -154 148q-110 -148 -266 -148 q-180 0 -266 138q-38 62 -38 142zM164 279q0 -86 62 -152.5t148 -66.5q122 0 213 136q-129 132 -243 290q-180 -100 -180 -207zM282 771q0 -39 29 -87q15 -26 65 -94q166 84 167 180q0 55 -36 93t-91 38q-56 0 -95 -37.5t-39 -92.5z" />
<glyph unicode="'" horiz-adv-x="298" d="M98 804v156h97v-156l-19 -176h-58z" />
<glyph unicode="(" horiz-adv-x="447" d="M102 410q0 212 94 410q52 108 134 224h59q-201 -318 -201 -639q0 -322 206 -620h-64q-228 313 -228 625z" />
<glyph unicode=")" horiz-adv-x="447" d="M54 1044h64q228 -313 228 -624q0 -305 -228 -635h-59q201 320 201 640q0 321 -206 619z" />
<glyph unicode="*" horiz-adv-x="522" d="M51 798l25 69l78 -33l82 -36l-15 179h75l-12 -179l79 36l81 33l22 -69l-82 -23l-84 -19l56 -68l58 -66l-58 -44l-50 74l-46 74l-91 -148l-59 44l52 66l59 68l-86 19z" />
<glyph unicode="+" horiz-adv-x="886" d="M89 442v60h321v321h62v-321h320v-60h-320v-322h-62v322h-321z" />
<glyph unicode="," horiz-adv-x="373" d="M128 -131q58 44 60 131h-53v127h114v-127q0 -117 -86 -179z" />
<glyph unicode="-" horiz-adv-x="447" d="M48 330v85h352v-85h-352z" />
<glyph unicode="." horiz-adv-x="373" d="M132 0v127h114v-127h-114z" />
<glyph unicode="/" horiz-adv-x="373" d="M0 -24l314 1001h62l-312 -1001h-64z" />
<glyph unicode="0" horiz-adv-x="746" d="M66 454q0 272 74 388q76 118 230 118q304 0 304 -488t-304 -488t-304 470zM152 466q0 -203 44 -299q51 -115 178 -115q216 0 216 420q0 422 -218 422q-114 0 -170 -102q-50 -94 -50 -326z" />
<glyph unicode="1" horiz-adv-x="746" d="M152 648v72q206 112 270 240h54v-960h-81v802q-109 -104 -243 -154z" />
<glyph unicode="2" horiz-adv-x="746" d="M48 0q12 108 100 206q61 68 176 158q84 66 104 82q58 50 95 94q59 72 59 152q0 120 -100 176q-48 26 -110 26q-182 0 -216 -210l-86 12q14 126 96 196q81 68 210 68q124 0 206 -70q86 -74 86 -195q0 -137 -119 -246q-59 -54 -185 -150q-152 -115 -208 -221h513v-78h-621z " />
<glyph unicode="3" horiz-adv-x="746" d="M66 243l80 12q46 -204 218 -204q132 0 194 110q28 51 29 119q0 92 -60 146q-58 52 -151 53q-32 0 -86 -11l9 72q125 0 187 50q58 48 58 132q0 78 -51.5 125t-129.5 47q-154 0 -203 -189l-82 15q60 240 284 240q119 0 192 -62q78 -66 78 -182q0 -134 -142 -200 q187 -48 187 -234q-1 -136 -89 -218q-86 -80 -223 -80q-246 0 -299 259z" />
<glyph unicode="4" horiz-adv-x="746" d="M24 239v73l461 648h64v-648h131v-73h-131v-239h-81v239h-444zM103 312h365v515z" />
<glyph unicode="5" horiz-adv-x="746" d="M66 237l82 10q41 -195 222 -195q124 0 190 114q36 59 36 142q0 102 -60 168q-62 70 -161 70q-113 0 -221 -106l-69 10l92 498h461v-76h-400l-61 -328q106 74 211 74q126 0 211 -88q83 -88 83 -215q0 -136 -90 -233.5t-235 -97.5q-227 0 -291 253z" />
<glyph unicode="6" horiz-adv-x="746" d="M59 446q0 331 150 452q78 62 190 62q211 0 259 -222l-82 -9q-42 164 -180 164q-82 1 -138 -51q-50 -45 -79 -123q-28 -74 -37 -252q104 139 258 139q126 0 204 -86q76 -83 76 -211q0 -191 -145 -283q-65 -42 -155 -42q-162 0 -244 123q-76 115 -77 339zM162 309 q0 -103 58 -177q64 -82 162 -81q98 0 156 78q52 71 52 171q0 99 -52 163q-56 69 -153 69q-96 0 -159.5 -63.5t-63.5 -159.5z" />
<glyph unicode="7" horiz-adv-x="746" d="M72 874v74h608v-54q-336 -387 -376 -894h-88q14 218 85 414t274 460h-503z" />
<glyph unicode="8" horiz-adv-x="746" d="M61 277q-1 177 175 240q-136 63 -136 197q0 144 130 214q60 32 140 32q160 0 236 -119q35 -55 35 -127q0 -135 -137 -197q176 -60 176 -240q0 -135 -88 -215q-86 -78 -222 -78q-185 0 -267 138q-42 71 -42 155zM145 270q0 -101 61.5 -159.5t163.5 -58.5t163 58t61 160 q0 129 -104 182q-50 26 -120 26q-140 0 -198 -98q-28 -46 -27 -110zM182 713q0 -76 56 -123q54 -44 132 -44t130 44q58 47 58 123q0 107 -90 157q-42 24 -98 24q-111 0 -164 -88q-24 -40 -24 -93z" />
<glyph unicode="9" horiz-adv-x="746" d="M62 634q0 138 80 230q84 96 220 96q198 0 279 -191q41 -98 41 -271q0 -331 -150 -452q-78 -62 -190 -62q-211 0 -259 222l81 9q44 -165 182 -165q78 0 139 54q57 50 81 128t34 244q-104 -138 -258 -138q-126 0 -204 86q-76 83 -76 210zM150 644q0 -100 53 -164 q56 -68 153 -68t160.5 63.5t63.5 159.5q0 104 -62 181t-158 77t-156 -78q-54 -71 -54 -171z" />
<glyph unicode=":" horiz-adv-x="373" d="M132 0v127h114v-127h-114zM132 568v128h114v-128h-114z" />
<glyph unicode=";" horiz-adv-x="373" d="M128 -131q58 44 60 131h-53v127h114v-127q0 -117 -86 -179zM135 568v128h114v-128h-114z" />
<glyph unicode="&#x3c;" horiz-adv-x="886" d="M88 444v54l704 298v-66l-623 -259l623 -257v-66z" />
<glyph unicode="=" horiz-adv-x="886" d="M88 282v60h704v-60h-704zM88 604v58h704v-58h-704z" />
<glyph unicode="&#x3e;" horiz-adv-x="886" d="M88 148v66l624 258l-624 258v66l704 -296v-54z" />
<glyph unicode="?" horiz-adv-x="671" d="M58 720q62 256 292 257q162 1 234 -121q34 -56 34 -134q0 -116 -136 -242q-46 -42 -64 -66q-33 -41 -42 -82t-9 -95h-83v55q0 28 8 64q12 60 54 110q26 30 62 64q119 108 119 192q0 76 -54 128t-131 52q-148 0 -195 -196zM273 0v126h113v-126h-113z" />
<glyph unicode="@" horiz-adv-x="1073" d="M0 337q0 159 68 291q72 138 206 215q124 71 294 71q294 0 424 -224q64 -112 64 -252q0 -181 -94 -298q-113 -140 -244 -140q-79 0 -79 70q0 18 5 51q-104 -121 -224 -121q-100 0 -162 78q-64 80 -64 199q0 122 64 233q62 108 167 150q53 20 103 20q131 0 200 -125l22 109 h82l-112 -526q-8 -36 -7 -53q-1 -26 31 -26q42 0 108 46q94 66 130 192q18 65 19 141q0 134 -64 238q-69 112 -189 156q-82 28 -184 28q-228 0 -370 -148q-140 -146 -140 -376q0 -310 244 -447q114 -64 272 -64q276 0 440 206h67q-164 -257 -507 -257q-207 0 -353 102 q-137 98 -191 278q-26 86 -26 183zM276 272q0 -86 42 -144q46 -66 127 -66q98 0 177 124q75 118 75 250q-1 78 -45 131q-48 56 -124 56q-116 0 -188 -122q-64 -105 -64 -229z" />
<glyph unicode="A" horiz-adv-x="895" d="M0 0l390 960h96l408 -960h-102l-125 306h-448l-121 -306h-98zM247 382h389l-199 483z" />
<glyph unicode="B" horiz-adv-x="895" d="M116 0v960h362q186 0 260 -111q36 -55 36 -131q0 -134 -137 -213q183 -59 183 -235q0 -164 -135 -234q-69 -36 -167 -36h-402zM208 78h300q133 0 190 84q28 44 28 108q0 90 -63 140q-57 46 -151 46h-304v-378zM208 538h282q120 0 170 82q24 38 24 92q0 86 -58 128 q-54 40 -184 40h-234v-342z" />
<glyph unicode="C" horiz-adv-x="969" d="M74 479q0 213 112 351q119 147 326 147h3q280 0 382 -281l-87 -24q-80 230 -289 230q-171 0 -267 -131q-86 -117 -86 -293q0 -178 78 -291q90 -129 261 -129q241 0 320 266l83 -22q-96 -318 -398 -318q-204 0 -316 128q-122 140 -122 367z" />
<glyph unicode="D" horiz-adv-x="969" d="M116 0v960h370q274 0 364 -239q42 -109 42 -235q0 -214 -94 -342q-106 -144 -312 -144h-370zM208 80h226q171 0 254 77q108 99 108 335q0 388 -362 388h-226v-800z" />
<glyph unicode="E" horiz-adv-x="819" d="M121 0v960h614v-80h-523v-346h484v-78h-484v-376h543v-80h-634z" />
<glyph unicode="F" horiz-adv-x="746" d="M116 0v960h568v-80h-476v-348h406v-78h-406v-454h-92z" />
<glyph unicode="G" horiz-adv-x="1043" d="M78 468q0 319 222 448q106 61 255 61q314 0 390 -274l-89 -27q-74 226 -307 226q-181 0 -283 -124q-94 -114 -95 -300q0 -247 171 -361q86 -57 209 -57q175 0 318 104v236h-305v78h394v-356q-190 -138 -398 -138q-154 0 -264 66q-116 68 -170 179q-48 95 -48 239z" />
<glyph unicode="H" horiz-adv-x="969" d="M114 0v960h90v-414h558v414h88v-960h-88v466h-558v-466h-90z" />
<glyph unicode="I" horiz-adv-x="373" d="M144 0v960h90v-960h-90z" />
<glyph unicode="J" horiz-adv-x="671" d="M33 264l83 10q14 -215 176 -215q170 0 170 215v686h91v-686q-1 -290 -271 -290q-236 0 -249 280z" />
<glyph unicode="K" horiz-adv-x="895" d="M118 0v960h91v-502l543 502h122l-432 -392l450 -568h-120l-390 513l-173 -157v-356h-91z" />
<glyph unicode="L" horiz-adv-x="746" d="M116 0v960h91v-882h484v-78h-575z" />
<glyph unicode="M" horiz-adv-x="1117" d="M119 0v960h127l310 -831l313 831h129v-960h-90l14 862l-328 -862h-76l-324 862l15 -862h-90z" />
<glyph unicode="N" horiz-adv-x="969" d="M116 0v960h90l560 -828l-6 828h89v-960h-96l-554 818l7 -818h-90z" />
<glyph unicode="O" horiz-adv-x="1043" d="M78 480q0 218 112 353q120 144 334 144q278 0 393 -233q55 -112 55 -264q0 -220 -112 -354q-120 -142 -336 -142q-274 0 -390 231q-56 112 -56 265zM172 480q0 -178 86 -292q96 -130 266 -130q213 0 307 199q45 95 45 223q0 180 -84 294q-94 128 -268 128t-268 -128 q-84 -114 -84 -294z" />
<glyph unicode="P" horiz-adv-x="819" d="M121 0v960h333q140 0 222 -66q88 -72 88 -208q0 -118 -78 -200q-76 -80 -232 -80h-242v-406h-91zM212 486h217q240 0 240 196t-240 196h-217v-392z" />
<glyph unicode="Q" horiz-adv-x="1043" d="M78 480q0 218 112 353q120 144 334 144q277 0 392 -231q56 -112 56 -266q0 -242 -142 -384q80 -58 162 -96l-25 -64q-86 30 -198 112q-104 -64 -245 -64q-208 0 -327 135t-119 361zM172 480q0 -178 86 -292q96 -130 266 -130q86 0 168 45q-69 53 -160 82l21 67 q96 -20 202 -104q121 115 121 332q0 260 -168 372q-77 50 -184 50q-170 0 -266 -129q-86 -116 -86 -293z" />
<glyph unicode="R" horiz-adv-x="895" d="M118 0v960h404q184 0 256 -118q34 -58 34 -138q0 -230 -278 -256q103 -52 176 -166l183 -282h-116l-129 203q-66 104 -83 125q-53 68 -113 94q-47 20 -104 20h-138v-442h-92zM210 520h252q254 0 255 184q0 80 -56 129q-54 47 -194 47h-257v-360z" />
<glyph unicode="S" horiz-adv-x="819" d="M61 289l91 8q22 -239 259 -239q165 0 227 99q32 48 32 103q0 145 -252 191q-146 26 -218 75q-100 66 -100 194q0 124 94 194q84 63 212 63q306 0 322 -270l-89 -4q-16 199 -226 199q-91 0 -153 -40q-72 -48 -72 -134q0 -137 230 -183q154 -31 229 -79q109 -70 109 -200 q0 -128 -90 -204q-94 -78 -248 -78q-328 0 -357 305z" />
<glyph unicode="T" horiz-adv-x="746" d="M30 876v84h680v-84h-294v-876h-92v876h-294z" />
<glyph unicode="U" horiz-adv-x="969" d="M114 352v608h93v-614q1 -288 277 -288q274 0 274 286v616h92v-607q0 -369 -364 -369q-372 0 -372 368z" />
<glyph unicode="V" horiz-adv-x="819" d="M10 960h98l302 -862l314 862h90l-358 -960h-94z" />
<glyph unicode="W" horiz-adv-x="1193" d="M14 960h93l208 -832l223 832h112l222 -826l215 826h87l-258 -960h-90l-230 859l-236 -859h-90z" />
<glyph unicode="X" horiz-adv-x="819" d="M8 0l362 501l-310 459h107l253 -385l276 385h94l-319 -449l346 -511h-111l-286 428l-304 -428h-108z" />
<glyph unicode="Y" horiz-adv-x="819" d="M11 960h107l294 -460l300 460h102l-362 -546v-414h-91v414z" />
<glyph unicode="Z" horiz-adv-x="819" d="M34 0v84l620 798h-566v78h678v-78l-626 -804h640v-78h-746z" />
<glyph unicode="[" horiz-adv-x="447" d="M104 -200v1230h308v-68h-227v-1094h227v-68h-308z" />
<glyph unicode="\" horiz-adv-x="373" d="M0 977h63l313 -1001h-62z" />
<glyph unicode="]" horiz-adv-x="447" d="M34 -132h228v1094h-228v68h310v-1230h-310v68z" />
<glyph unicode="^" horiz-adv-x="886" d="M147 624l293 353l293 -353l-43 -34l-250 302l-252 -302z" />
<glyph unicode="_" horiz-adv-x="671" d="M-8 -101h687v-67h-687v67z" />
<glyph unicode="`" horiz-adv-x="447" d="M84 960h130l84 -173h-66z" />
<glyph unicode="a" horiz-adv-x="746" d="M61 178q0 132 131 184q48 18 171 36q139 18 195 40q0 114 -26 152q-40 58 -156 58q-180 0 -217 -154l-83 12q38 206 300 206q164 0 220 -72q27 -34 36 -85q8 -51 8 -123v-16l-2 -196v-11q0 -119 42 -209h-89q-19 49 -25 106q-113 -122 -285 -122q-133 0 -191 88 q-30 44 -29 106zM147 184q1 -60 47 -96q42 -30 104 -30q78 0 152 40q76 42 96 123q12 45 12 108v45q-68 -26 -220 -52q-66 -12 -94 -21q-56 -18 -78 -51q-19 -28 -19 -66z" />
<glyph unicode="b" horiz-adv-x="819" d="M108 0v960h82v-378q104 130 262 130q150 0 232 -107q76 -98 76 -251q0 -160 -76 -260q-84 -110 -240 -110q-152 0 -254 122v-106h-82zM188 337q0 -125 61 -201q66 -84 188 -84q110 0 174.5 84t64.5 210q0 122 -55 204q-63 94 -179 94q-128 0 -194 -93q-60 -82 -60 -214z " />
<glyph unicode="c" horiz-adv-x="746" d="M60 348q0 142 60 236q48 74 136 110q46 18 120 18q228 0 298 -213l-86 -13q-46 156 -214 156q-108 0 -168 -78t-60 -207q0 -127 50 -209q60 -98 180 -98q159 0 227 188l81 -12q-80 -242 -311 -242q-191 0 -271 162q-42 84 -42 202z" />
<glyph unicode="d" horiz-adv-x="819" d="M64 354q0 156 76 252q84 106 235 106q162 0 260 -130v378h81v-960h-81v106q-109 -122 -261 -122q-144 0 -227 102t-83 268zM150 346q0 -120 58 -202q66 -92 180 -92q126 0 191 88q57 78 57 210q0 126 -62 206q-68 88 -192 88q-116 0 -178 -94q-54 -82 -54 -204z" />
<glyph unicode="e" horiz-adv-x="746" d="M62 348q0 160 76 257q84 107 240 107q302 0 304 -374h-535q2 -124 55 -200q62 -87 180 -87q152 0 212 169l80 -14q-76 -222 -298 -222q-156 0 -238 107q-76 97 -76 257zM150 405h444q-19 241 -218 241q-100 0 -161 -72q-53 -64 -65 -169z" />
<glyph unicode="f" horiz-adv-x="373" d="M22 634v62h112v72q0 138 70 183q40 26 100 26q34 -1 100 -17l-14 -66q-48 8 -68 8q-71 0 -94 -47q-13 -27 -13 -99v-60h145v-62h-145v-634h-81v634h-112z" />
<glyph unicode="g" horiz-adv-x="819" d="M66 346q0 228 149 323q67 43 161 43q166 0 259 -134v118h81v-640q0 -233 -146 -303q-75 -35 -190 -35q-272 0 -286 204l80 -14q26 -124 194 -124q268 0 267 254v68q-99 -122 -260 -122q-140 0 -224 99q-85 101 -85 263zM152 348q0 -124 56 -204q64 -94 182 -94 q140 0 209 124q36 66 36 166q-1 128 -57 210q-65 92 -187 92q-110 0 -176 -80q-63 -78 -63 -214z" />
<glyph unicode="h" horiz-adv-x="746" d="M103 0v960h82v-367q94 119 224 119q237 0 237 -258v-454h-83v432q1 208 -161 208q-80 0 -140 -54q-56 -52 -70 -138q-7 -42 -7 -146v-302h-82z" />
<glyph unicode="i" horiz-adv-x="298" d="M106 0v696h82v-696h-82zM106 838v122h82v-122h-82z" />
<glyph unicode="j" horiz-adv-x="298" d="M-42 -268l17 72q29 -8 51 -8q53 0 71 42q9 22 9 96v762h82v-752q0 -120 -22 -162q-34 -64 -124 -64q-28 0 -84 14zM106 840v120h82v-120h-82z" />
<glyph unicode="k" horiz-adv-x="671" d="M108 0v960h82v-587l338 323h116l-290 -260l311 -436h-106l-265 380l-104 -93v-287h-82z" />
<glyph unicode="l" horiz-adv-x="298" d="M106 0v960h82v-960h-82z" />
<glyph unicode="m" horiz-adv-x="1117" d="M107 0v696h81v-100q88 116 214 116q132 0 184 -116q92 116 218 116q206 0 207 -238v-474h-81v431q0 153 -64 191q-33 20 -79 20q-130 0 -168 -134q-18 -62 -18 -166v-342h-81v440q0 138 -57 176q-32 22 -82 23q-101 -1 -151 -89q-42 -72 -42 -179v-371h-81z" />
<glyph unicode="n" horiz-adv-x="746" d="M103 0v696h82v-103q94 119 224 119q237 0 237 -258v-454h-83v432q1 208 -161 208q-80 0 -140 -54q-56 -52 -70 -138q-7 -42 -7 -146v-302h-82z" />
<glyph unicode="o" horiz-adv-x="746" d="M59 348q0 163 73 257q82 107 238 107q158 0 238 -107q72 -96 72 -259q0 -162 -73 -256q-81 -106 -238 -106q-142 0 -226 100t-84 264zM145 345q0 -121 51 -199q60 -96 177 -96q99 0 159 75q64 79 64 221q0 190 -104 264q-49 34 -120 34q-116 0 -176 -92q-51 -80 -51 -207 z" />
<glyph unicode="p" horiz-adv-x="819" d="M108 -266v962h82v-114q108 130 261 130q138 0 220 -91q89 -100 89 -267q0 -160 -76 -260q-84 -110 -240 -110q-152 0 -254 122v-372h-82zM188 337q0 -125 61 -201q66 -84 188 -84q110 0 174.5 84t64.5 210q0 184 -112 262q-51 34 -122 34q-118 0 -184 -78 q-70 -82 -70 -227z" />
<glyph unicode="q" horiz-adv-x="819" d="M64 354q0 156 76 252q84 106 235 106q162 0 260 -130v114h81v-962h-81v372q-110 -122 -261 -122q-142 0 -224 100q-86 102 -86 270zM150 346q0 -120 58 -202q66 -92 180 -92q126 0 191 88q57 78 57 210q0 126 -62 206q-68 88 -192 88q-116 0 -178 -94q-54 -82 -54 -204z " />
<glyph unicode="r" horiz-adv-x="447" d="M107 0v696h72v-141q53 157 163 157q56 0 122 -42l-31 -71q-63 27 -93 27q-48 0 -84 -33q-38 -36 -50 -89q-18 -74 -18 -177v-327h-81z" />
<glyph unicode="s" horiz-adv-x="671" d="M50 188l83 14q36 -152 204 -152q113 0 161 66q22 30 22 70q0 72 -92 104q-42 16 -118 32q-238 50 -238 194q0 96 78 150q68 46 168 46q211 0 258 -184l-80 -12q-22 73 -61 100.5t-115 27.5q-104 0 -146 -54q-20 -24 -20 -58q0 -68 86 -100q50 -20 128 -38 q110 -26 160 -57q78 -50 78 -140q0 -133 -126 -187q-62 -26 -146 -26q-166 0 -240 100q-28 36 -44 104z" />
<glyph unicode="t" horiz-adv-x="373" d="M29 634v62h97v178l82 52v-230h132v-62h-132v-456q0 -88 31 -108q17 -12 47 -12q22 0 65 8l11 -66q-54 -11 -87 -11h-3q-97 0 -129 63q-17 32 -17 116v466h-97z" />
<glyph unicode="u" horiz-adv-x="746" d="M96 242v454h82v-432q0 -209 162 -209h2q100 0 164 83q50 64 50 256v302h82v-696h-82v103q-92 -119 -224 -119q-236 0 -236 258z" />
<glyph unicode="v" horiz-adv-x="671" d="M19 696h87l229 -596l231 596h86l-278 -696h-76z" />
<glyph unicode="w" horiz-adv-x="969" d="M6 696h86l186 -594l167 594h75l166 -594l188 594h84l-232 -696h-85l-159 572l-158 -572h-85z" />
<glyph unicode="x" horiz-adv-x="671" d="M11 0l277 363l-257 333h102l203 -267l202 267h102l-258 -325l277 -371h-101l-222 302l-222 -302h-103z" />
<glyph unicode="y" horiz-adv-x="671" d="M24 696h88l230 -602l237 602h81l-329 -834q-57 -144 -161 -144q-26 0 -78 12l-10 82q45 -11 70 -11h4q41 0 61 19q15 14 32 58l49 122z" />
<glyph unicode="z" horiz-adv-x="671" d="M28 0v72l477 556h-449v68h562v-55l-482 -569h504v-72h-612z" />
<glyph unicode="{" horiz-adv-x="447" d="M66 372v86q126 0 126 217v139q0 172 88 211q44 19 104 19v-74q-86 -2 -107 -58q-11 -30 -11 -158q0 -139 -14 -195q-26 -105 -116 -145q94 -44 121 -148q9 -38 9 -152v-58q0 -158 38 -182q20 -12 80 -15v-74q-124 -1 -168 81q-24 43 -24 146v138q0 161 -55 202 q-27 20 -71 20z" />
<glyph unicode="|" horiz-adv-x="298" d="M114 -266v1226h66v-1226h-66z" />
<glyph unicode="}" horiz-adv-x="447" d="M64 -140q82 1 105 54q13 28 13 162q0 192 33 251t95 89q-80 37 -108 115q-22 57 -21 185l1 58q0 82 -2 98q-8 62 -42 82q-28 15 -74 17v73q123 0 168 -79q24 -41 24 -147l-1 -138q1 -174 63 -206q28 -14 64 -16v-86q-126 0 -127 -216v-80q0 -150 -25 -206 q-39 -84 -144 -85q-10 0 -22 1v74z" />
<glyph unicode="~" horiz-adv-x="886" d="M90 406v72q106 78 184 78q60 0 170 -52q112 -53 164 -53q74 -1 184 89v-77q-114 -75 -184 -75q-43 0 -92 19q-22 8 -82 36q-108 51 -158 51q-80 0 -186 -88z" />
<glyph unicode="&#xa1;" horiz-adv-x="819" d="M62 674q46 70 146 115q94 41 185 41q195 0 272 -107q35 -50 35 -121v-602h-76v598q0 82 -79 126q-64 36 -154 36q-120 0 -211 -66q81 -22 164 -78q-102 -44 -123 -96q-10 -24 -10 -59v-461h-76v494q1 84 97 118q-52 34 -170 62z" />
<glyph unicode="&#xa2;" horiz-adv-x="770" d="M40 606q0 116 94 184q56 40 156 40q82 0 135 -44q56 -46 56 -126q0 -34 -36 -110t-36 -100v-374h166v743h76v-819h-420v76h103v387q0 28 33.5 98.5t33.5 96.5q-1 89 -101 102q-86 0 -130 -29q94 0 124 -60q14 -30 14 -70q0 -71 -60 -111q-32 -20 -76 -21q-78 0 -114 67 q-18 32 -18 70zM110 608q0 -66 64 -66q66 0 65 66q1 64 -65 64q-64 0 -64 -64z" />
<glyph unicode="&#xa3;" horiz-adv-x="819" d="M44 592q0 70 48 150q54 88 120 88q22 0 36 -11l79 -61l78 59q17 13 29 13q16 0 69 -60t53 -78q0 -8 -86 -112q-16 -18 -16 -52v-452h168v743h76v-819h-422v76h102v462q0 56 64 116q28 26 28 34q0 12 -16 31t-28 19q-20 0 -96 -68q-86 84 -122 84q-30 0 -62 -38 q-30 -34 -36 -67q28 29 84 29q54 0 88.5 -38t34.5 -93q0 -59 -37.5 -93t-97.5 -34q-138 0 -138 172zM122 553q0 -65 64 -65q66 0 66 65q0 63 -66 63q-64 0 -64 -63z" />
<glyph unicode="&#xa4;" horiz-adv-x="854" d="M116 0v494q0 142 84 236q88 100 228 100q178 0 264 -132q43 -66 43 -160v-538h-75v532q0 130 -110 197q-52 31 -118 31q-132 0 -206 -118q-40 -62 -40 -150v-324l44 135l61 209q38 131 146 131q56 0 94.5 -39.5t38.5 -95.5q0 -58 -39.5 -97t-98.5 -39q-76 0 -98 50 l-10 -33l-130 -389h-78zM366 510q0 -68 70 -68q62 0 62 62q0 68 -70 68q-62 0 -62 -62z" />
<glyph unicode="&#xa5;" horiz-adv-x="854" d="M121 0v635q0 105 79 159q36 26 83 25q72 0 104 -27q17 -12 53 -44q14 14 58 44q36 27 102 27q82 1 122 -79q18 -38 18 -88v-652h-76v592q0 154 -86 154q-32 0 -52 -15l-86 -65l-86 65q-22 17 -60 17q-96 0 -97 -156v-422l41 129l62 176q46 133 138 133q136 0 136 -135 q0 -79 -62 -113q-28 -16 -67 -16q-57 0 -103 56l-16 -54l-127 -346h-78zM375 477q-1 -65 65 -65q64 0 64 65q0 63 -64 63q-66 0 -65 -63z" />
<glyph unicode="&#xa6;" horiz-adv-x="997" d="M60 596q0 69 50 148q54 86 116 86q26 0 40 -11l77 -61l78 59q17 13 29 13q16 0 69 -60.5t53 -77.5q0 -15 -38 -58l-50 -58q-14 -16 -14 -48v-186q210 -40 340 -232l-10 74v635h76v-819h-76q0 28 -92 130q-74 81 -168 118q-47 18 -70 20v-186q0 -42 -35 -68 q-31 -24 -75 -24q-96 0 -152 84q-28 42 -28 98q0 88 65 134q57 40 149 40v192q0 51 64 115q30 30 30 35q0 12 -16 31t-28 19q-22 0 -99 -68q-87 84 -121 84q-30 0 -62 -38q-31 -36 -36 -67q27 29 88 29q66 0 100 -56q18 -30 19 -75q0 -58 -38.5 -92.5t-96.5 -34.5 q-138 0 -138 176zM138 553q0 -65 64 -65q66 0 66 65q0 63 -66 63q-64 0 -64 -63zM255 168q0 -42 30.5 -74t72.5 -32q36 0 36 50v158q-140 0 -139 -102z" />
<glyph unicode="&#xa7;" horiz-adv-x="641" d="M12 440l56 56l336 -344q9 -9 22 -29l28 -41l-8 55v379q0 36 23 76q-33 -35 -86 -35q-68 1 -107 61q-20 30 -20 70q0 84 68 124q30 18 69 18q50 0 89.5 -38t39.5 -88v-704h-76zM326 692q0 -64 63 -64q61 0 61 62q0 64 -63 64q-61 0 -61 -62z" />
<glyph unicode="&#xa8;" horiz-adv-x="782" d="M51 424v74q-1 200 139 289q64 41 152 41q136 0 226 -75q96 -79 96 -213v-540h-72l-119 344q-15 40 -23 58q-26 -46 -96 -46q-76 0 -112 64q-16 30 -16 68q0 68 58 106q28 18 66 18q106 0 140 -104l88 -268l20 -74v370q0 112 -111 183q-58 37 -137 37q-114 0 -172 -80 q-52 -70 -51 -188v-64h-76zM297 486q-1 -64 61 -64t62 64q0 62 -62 61q-62 1 -61 -61z" />
<glyph unicode="&#xa9;" horiz-adv-x="829" d="M58 420v62q0 202 158 302q71 46 165 46q138 0 229.5 -87t91.5 -219v-274q88 -22 88 -125q0 -54 -36 -92.5t-90 -38.5q-75 0 -113 50q-19 24 -19 52q0 24 4 33q-50 -40 -172 -129h-75v358q-93 20 -93 128q0 55 40 94q40 38 94 38q56 0 94.5 -37t38.5 -93q-1 -100 -99 -130 v-274q226 172 262 172v266q0 102 -73 168q-70 64 -174 64q-131 0 -205 -121q-38 -63 -39 -151v-62h-77zM266 488q0 -64 64 -64t63 64q1 64 -63 63q-64 1 -64 -63zM592 131q0 -67 68 -67q64 0 63 63q1 67 -67 67q-64 0 -64 -63z" />
<glyph unicode="&#xaa;" horiz-adv-x="782" d="M22 606q0 98 78 159q72 59 171 59q113 0 227 -80l144 140l53 -50l-131 -132l96 -69v-633h-404v76h95v448q-1 62 33 102q24 28 65 62q-94 66 -180 66q-98 0 -133 -46q18 8 34 9q70 0 104 -58q18 -32 18 -74q0 -54 -42.5 -92.5t-97.5 -38.5q-130 0 -130 152zM93 594 q0 -66 63 -66q66 0 66 66q0 64 -66 64q-63 0 -63 -64zM428 76h156v522l-74 54q-69 -64 -77 -88q-5 -12 -5 -44v-444z" />
<glyph unicode="&#xab;" horiz-adv-x="782" d="M35 604q1 74 41 144q46 82 114 82q22 0 36 -11l77 -65l78 63q17 13 29 13t100 -80l135 134l53 -50l-130 -132l96 -86v-616h-410v76h100v462q0 52 54 105l55 55q-49 48 -59 48q-12 0 -99 -76q-87 84 -121 84q-30 0 -56 -35q-22 -30 -26 -63q39 22 66 22q56 0 90.5 -37 t34.5 -94q0 -52 -36.5 -89.5t-86.5 -37.5q-134 0 -135 184zM100 553q0 -65 64 -65q66 0 66 65q0 63 -66 63q-64 0 -64 -63zM432 76h156v510l-76 66q-58 -52 -70 -80q-10 -20 -10 -44v-452z" />
<glyph unicode="&#xac;" horiz-adv-x="1222" d="M64 674q44 70 147 115q95 41 185 41q200 0 274 -111q32 -50 32 -117v-266q92 -12 186 -80q88 -64 140 -148v711h76v-819h-76q-6 44 -87 123q-71 67 -123 97q-76 42 -116 44v-182q0 -92 -90 -92q-82 0 -128 88q-23 42 -23 91q0 76 45 123q44 46 120 50v256q0 82 -79 126 q-64 36 -154 36q-121 0 -211 -66q86 -22 164 -78q-139 -60 -139 -155v-227q23 22 59 22q82 0 119 -64q17 -30 17 -69q0 -76 -68 -115q-32 -18 -72 -18q-58 0 -94.5 37t-36.5 96v354q1 83 103 135q-52 34 -170 62zM205 119q0 -61 61 -61q64 0 64 67q0 61 -62 61 q-64 0 -63 -67zM532 170q0 -38 20 -70q22 -38 58 -38q20 0 21 50v158q-99 -2 -99 -100z" />
<glyph unicode="&#xad;" horiz-adv-x="447" d="M48 330v85h352v-85h-352z" />
<glyph unicode="&#xae;" horiz-adv-x="901" d="M30 123q0 56 35 92t91 36q34 0 65 -16v257q1 82 95 120q-52 34 -172 62q46 72 148 116q93 40 185 40q194 0 270 -107q35 -50 35 -121v-897l-198 -201l-178 119q-28 17 -40 55v-30q0 -57 -40 -99.5t-98 -42.5q-86 0 -127 70q-19 32 -19 76q0 57 40 98t97 41q67 -1 97 -33 q-16 20 -17 42v106h69v-170l206 -134l132 134v862q0 82 -78 126q-64 36 -155 36q-120 0 -211 -66q84 -22 164 -78q-102 -48 -120 -96q-9 -24 -9 -59v-336q0 -54 -37.5 -94.5t-91.5 -40.5q-80 0 -120 66q-18 30 -18 67zM100 127q0 -71 67 -71q63 0 63 63q0 71 -70 71 q-60 0 -60 -63zM158 -346q0 -74 70 -74q28 0 49.5 21t21.5 49q0 74 -76 74q-26 0 -45.5 -21.5t-19.5 -48.5z" />
<glyph unicode="&#xaf;" horiz-adv-x="901" d="M30 123q0 56 35 92t91 36q34 0 65 -16v257q1 84 95 120q-52 34 -172 62q46 72 148 116q93 40 185 40q194 0 270 -107q35 -50 35 -121v-946l-147 -152l-93 92l-90 -92q-27 28 -77 84q-9 14 -15 33q-8 -45 -40 -79q-34 -36 -80 -36q-94 0 -138 70q-20 32 -20 76q0 57 40 98 t97 41q59 -1 97 -35q-16 22 -17 44v106h69v-201l84 -103l90 89l89 -89l75 80v916q0 82 -78 126q-64 36 -155 36q-120 0 -211 -66q84 -22 164 -78q-102 -48 -120 -96q-9 -24 -9 -59v-336q0 -54 -37.5 -94.5t-91.5 -40.5q-80 0 -120 66q-18 30 -18 67zM100 127q0 -71 67 -71 q63 0 63 63q0 71 -70 71q-60 0 -60 -63zM158 -346q0 -74 76 -74q66 0 65 70q0 74 -76 74q-65 0 -65 -70z" />
<glyph unicode="&#xb0;" horiz-adv-x="782" d="M-22 -375q0 73 62 113q30 20 72 20q52 0 86 -28q-16 31 -16 43v145h72v-240l82 -104l88 88l88 -88l74 76v30q4 22 14 36q-31 -34 -86 -34q-125 0 -125 130q0 57 39.5 93.5t95.5 36.5q60 0 97 -38q35 -38 35 -98v-185l-142 -143l-90 90l-88 -90l-66 74q-17 18 -24 50 q-12 -122 -138 -122q-62 0 -97 42q-33 40 -33 103zM47 -377q0 -69 65 -69q68 0 68 63q0 69 -70 69q-64 0 -63 -63zM96 576l2 20q10 106 96 168q78 56 189 57q77 0 179 -27q44 -12 58 -12q6 2 15 86l71 -10q-6 -48 -11 -98q-15 -60 -60 -60q-21 0 -122 25t-137 25 q-160 0 -206 -117q57 31 164 31q102 0 190 -22q134 -34 134 -106l-84 -536h-72l-90 258q-2 16 -6 35q0 6 2 41q-36 -70 -116 -70q-66 0 -105 64q-21 32 -21 76q0 56 38 94t94 38q96 0 128 -96l84 -258l16 -88h6l6 136l44 294q0 38 -127 58q-82 12 -158 12q-105 0 -201 -18z M236 400q0 -64 63 -64t63 64t-63 63q-63 1 -63 -63zM456 -194q0 -62 69 -62q63 0 63 68q0 62 -66 61q-66 1 -66 -67z" />
<glyph unicode="&#xb1;" horiz-adv-x="1032" d="M42 592q0 70 48 150q54 88 120 88q22 0 36 -11l79 -61l78 59q17 13 29 13q22 0 92 -86q30 -38 30 -52q0 -8 -86 -112q-16 -18 -16 -52v-315l58 164l159 442h51q190 -1 191 -207v-612h-76v616q-1 128 -103 128h-12l-274 -744h-70v538q0 56 64 116q28 26 28 34q0 12 -16 31 t-28 19q-20 0 -96 -68q-86 84 -122 84q-30 0 -62 -38q-30 -34 -36 -67q28 29 84 29q54 0 88.5 -38t34.5 -93q0 -77 -64 -111q-30 -16 -71 -16q-138 0 -138 172zM120 553q0 -65 64 -65q66 0 66 65q0 63 -66 63q-64 0 -64 -63z" />
<glyph unicode="&#xb2;" horiz-adv-x="1257" d="M121 0v635q0 105 79 159q36 26 83 25q72 0 104 -27q17 -12 53 -44q14 14 58 44q36 27 102 27q82 1 122 -79q18 -38 18 -88v-316q76 0 182 -76q96 -68 141 -141v700h75v-819h-75q-11 48 -89 122q-66 66 -120 96q-76 44 -114 48v-184q0 -92 -93 -92q-74 0 -115 56 q-36 50 -36 126q0 100 78 146q38 22 90 24v250q0 154 -86 154q-32 0 -52 -15l-86 -65l-86 65q-22 17 -60 17q-96 0 -97 -156v-494l171 205q28 33 56 47q-70 0 -112 59q-20 28 -21 64q1 79 61 115q30 18 72 18q80 0 118 -62q17 -28 17 -66q0 -52 -45 -106l-315 -372h-78z M358 484q0 -74 70 -74q64 0 64 67q0 70 -70 70q-64 1 -64 -63zM570 172q0 -110 75 -110q19 0 19 50v158q-94 -2 -94 -98z" />
<glyph unicode="&#xb3;" horiz-adv-x="1245" d="M62 674q46 70 146 115q94 41 185 41q195 0 272 -107q35 -50 35 -121v-504q68 70 158 127q110 70 184 70v524h76v-535q94 -38 94 -140q0 -96 -72 -136q-34 -18 -81 -18q-149 0 -149 152q0 6 16 48q-10 -10 -36 -30l-92 -68q-66 -50 -104 -92h-70v598q0 82 -79 126 q-64 36 -154 36q-120 0 -211 -66q81 -22 164 -78q-100 -42 -124 -96q-12 -25 -11 -59v-227q23 20 57 20q78 0 114 -64q18 -29 18 -67q0 -77 -67 -115q-31 -18 -71 -18q-58 0 -92 38q-33 36 -33 95v371q1 84 97 118q-52 34 -170 62zM200 121q0 -63 62 -63q66 0 66 67 q0 63 -64 63t-64 -67zM973 146q0 -88 88 -88q86 0 86 84q0 88 -88 88q-86 0 -86 -84z" />
<glyph unicode="&#xb4;" horiz-adv-x="854" d="M116 0v494q0 140 86 236q88 100 226 100q180 0 268 -142q40 -66 39 -150v-538h-75v532q0 98 -70 163q-67 63 -164 63q-132 0 -200 -130q-32 -60 -32 -134v-380l178 224q10 14 42 38l12 9q-127 0 -127 123q0 55 39.5 95t93.5 40q78 0 118 -64q18 -29 18 -65 q0 -52 -46 -108l-334 -406h-72zM366 510q0 -68 70 -68q62 0 62 62q0 68 -70 68q-62 0 -62 -62z" />
<glyph unicode="&#xb5;" horiz-adv-x="854" d="M116 0v635q0 72 45 126q47 58 117 58q72 0 104 -27q18 -12 54 -44q14 14 57 44q37 27 103 27q74 0 116 -71q22 -38 23 -96v-652h-76v592q1 154 -85 154q-32 0 -52 -15l-86 -65l-86 65q-22 17 -61 17q-97 0 -97 -156v-494l172 205q8 10 28 28q6 5 27 19q-51 0 -91 36 q-42 36 -42 87q0 60 37 96.5t97 36.5q58 0 96 -36q38 -34 38 -92q0 -52 -44 -106l-316 -372h-78zM354 484q0 -74 70 -74q64 0 63 67q1 70 -69 70q-64 1 -64 -63z" />
<glyph unicode="&#xb6;" horiz-adv-x="819" d="M62 674q46 70 146 115q94 41 185 41q195 0 272 -107q35 -50 35 -121v-602h-76v598q0 82 -79 126q-64 36 -154 36q-120 0 -211 -66q81 -22 164 -78q-98 -42 -124 -98q-12 -26 -13 -59v-231q15 22 63 22q54 0 91 -37t37 -90q0 -77 -67 -115q-31 -18 -71 -18 q-58 0 -91.5 36.5t-33.5 94.5v373q1 84 97 118q-52 34 -170 62zM198 116q0 -60 63 -60q69 0 69 65q0 61 -67 61q-65 0 -65 -66z" />
<glyph unicode="&#xb7;" horiz-adv-x="878" d="M39 694q0 74 63 115q32 21 74 21q58 0 94.5 -38t36.5 -98v-494l21 82l30 97l158 440h54q190 -1 190 -207v-612h-76v616q0 128 -102 128h-12l-271 -744h-69v559q0 4 1 12.5t1 12.5q-24 -22 -60 -23q-74 -1 -112 59q-20 30 -21 74zM110 692q0 -61 63 -61q69 -1 69 67 q0 62 -64 62q-68 0 -68 -68z" />
<glyph unicode="&#xb8;" horiz-adv-x="735" d="M62 522l2 18q14 122 118 208q102 82 226 82q176 0 264 -138l-60 -40q-70 106 -215 106q-83 0 -154 -50t-102 -128q25 12 49 12h248q154 0 154 -142v-450h-476v76h97v446h-151zM289 76h227v366q0 80 -70 80h-157v-446z" />
<glyph unicode="&#xb9;" horiz-adv-x="878" d="M39 694q0 74 63 115q32 21 74 21q78 0 112 -64q16 -30 17 -72v-586q145 141 289 176q64 15 90 15v520h76v-535q94 -38 94 -140q0 -154 -154 -154q-89 0 -130 73q-19 35 -19 79q0 36 22 64q-26 0 -102 -53q-63 -43 -95 -73q-46 -42 -73 -80h-75v576q-18 -14 -54 -15 q-74 0 -114 59q-21 30 -21 74zM110 692q0 -61 62 -61q70 -1 70 67q0 62 -62 62q-70 0 -70 -68zM614 146q0 -88 88 -88q86 0 86 84q0 88 -88 88q-86 0 -86 -84z" />
<glyph unicode="&#xba;" horiz-adv-x="913" d="M41 694q0 72 64 114q32 22 75 22q76 0 112 -64q16 -30 17 -72v-618h410v743h75v-819h-654v76h94v504q-20 -16 -64 -17q-56 0 -92.5 37.5t-36.5 93.5zM112 692q0 -61 62 -61q70 -1 70 67q0 62 -62 62q-70 0 -70 -68z" />
<glyph unicode="&#xbb;" horiz-adv-x="913" d="M41 694q0 72 64 114q32 22 75 22q76 0 112 -64q16 -30 17 -72v-618h410v1182h75v-1258h-654v76h94v504q-20 -16 -64 -17q-56 0 -92.5 37.5t-36.5 93.5zM112 692q0 -61 62 -61q70 -1 70 67q0 62 -62 62q-70 0 -70 -68z" />
<glyph unicode="&#xbc;" horiz-adv-x="829" d="M123 0v694q0 58 37 97t94 39q58 0 97.5 -39t39.5 -97q-1 -79 -63 -116q-28 -17 -66 -17q-38 1 -64 23v-463l187 229h65l185 -223v692h75v-819h-69l-223 272l-224 -272h-71zM188 698q0 -68 66 -67q66 0 66 61q0 68 -70 68q-62 0 -62 -62z" />
<glyph unicode="&#xbd;" horiz-adv-x="829" d="M123 0v694q0 58 37 97t94 39q58 0 97.5 -39t39.5 -97q-1 -79 -63 -116q-28 -17 -66 -17q-38 1 -64 23v-463l187 229h65l185 -223v1131h75v-1258h-69l-223 272l-224 -272h-71zM188 698q0 -68 66 -67q66 0 66 61q0 68 -70 68q-62 0 -62 -62z" />
<glyph unicode="&#xbe;" horiz-adv-x="948" d="M39 694q0 74 63 115q32 21 74 21q60 0 94 -39q34 -37 33 -97v-474l41 134l150 465h71l163 -503l26 -103v606h76v-819h-76l-201 628l-25 107l-22 -107l-203 -628h-75v580q-22 -18 -62 -19q-54 0 -91 40q-36 37 -36 93zM110 692q0 -61 62 -61q70 -1 70 67q0 62 -61 62 q-71 0 -71 -68z" />
<glyph unicode="&#xbf;" horiz-adv-x="948" d="M39 694q0 74 63 115q32 21 74 21q60 0 94 -39q34 -37 33 -97v-474l41 134l150 465h71l163 -503l26 -103v1045h76v-1258h-76l-201 628l-25 107l-22 -107l-203 -628h-75v580q-22 -18 -62 -19q-54 0 -91 40q-36 37 -36 93zM110 692q0 -61 62 -61q70 -1 70 67q0 62 -61 62 q-71 0 -71 -68z" />
<glyph unicode="&#xc0;" horiz-adv-x="901" d="M30 123q0 56 35 92t91 36q34 0 65 -16v257q1 82 95 120q-52 34 -172 62q46 72 148 116q93 40 185 40q194 0 270 -107q35 -50 35 -121v-602h-76v598q0 82 -78 126q-64 36 -155 36q-120 0 -211 -66q84 -22 164 -78q-102 -48 -120 -96q-9 -24 -9 -59v-336q0 -54 -37.5 -94.5 t-91.5 -40.5q-80 0 -120 66q-18 30 -18 67zM100 127q0 -71 67 -71q63 0 63 63q0 71 -70 71q-60 0 -60 -63z" />
<glyph unicode="&#xc1;" horiz-adv-x="889" d="M66 694q0 58 39.5 97t97.5 39q59 0 95 -38t36 -98v-385q80 -1 198 -71q110 -66 162 -136v717h76v-819h-76q0 25 -115 117q-141 113 -247 119v-154q0 -92 -90 -92q-92 0 -142 82q-22 36 -22 82q0 78 52 121q48 41 128 41v262q-10 -16 -58 -17q-59 0 -96.5 37.5t-37.5 95.5 zM137 692q0 -61 63 -61q68 -1 68 67q0 62 -62 62q-68 0 -69 -68zM154 154q0 -34 26 -63t60 -29q20 0 20 50v128q-106 0 -106 -86z" />
<glyph unicode="&#xc2;" horiz-adv-x="819" d="M70 604q0 78 50 146q58 80 154 80q64 0 104 -36q42 -38 42 -100q0 -78 -63 -116q-28 -18 -66 -17q-123 0 -123 115q0 6 2 24q-26 -26 -26 -91t42 -111q43 -48 107 -48h119v-71h-107q-77 0 -77 -90v-213h394v743h76v-819h-546v278q0 106 57 130q-139 46 -139 196zM217 698 q1 -68 69 -67q62 0 62 61q0 68 -68 68q-63 0 -63 -62z" />
<glyph unicode="&#xc3;" horiz-adv-x="616" d="M76 540v42q0 106 75 178q74 70 181 70q146 0 219 -118q33 -54 33 -124v-31h-72v17q0 108 -88 162q-40 24 -92 24q-166 0 -186 -160q38 12 56 12h224v-500q0 -50 -38 -86t-89 -36q-139 0 -139 139q0 56 37 93.5t92 37.5q34 0 61 -18v298h-274zM230 125q0 -61 61 -61 q63 0 63 63q0 61 -61 61q-63 0 -63 -63z" />
<glyph unicode="&#xc4;" horiz-adv-x="819" d="M62 674q46 70 146 115q94 41 185 41q195 0 272 -107q35 -50 35 -121v-1100h-76v1096q0 82 -79 126q-64 36 -154 36q-120 0 -211 -66q81 -22 164 -78q-100 -42 -124 -96q-12 -25 -11 -59v-219q18 16 51 16q78 0 118 -61q20 -31 20 -74q0 -77 -67 -115q-31 -18 -71 -18 q-72 0 -106 56q-18 30 -19 75v373q1 84 97 118q-52 34 -170 62zM196 119q0 -61 65 -61q67 0 67 67q0 61 -62 61q-70 0 -70 -67z" />
<glyph unicode="&#xc5;" horiz-adv-x="829" d="M78 438v56q0 200 158 292q72 44 170 44q126 0 215 -84q89 -86 89 -208v-538h-75q1 88 -87 284q-86 192 -152 258q-52 -48 -112 -147q-56 -95 -78 -167q32 28 64 28q58 0 98 -37.5t40 -95.5t-40 -95.5t-98 -37.5q-62 0 -101 45q-38 45 -38 107q1 122 59 236 q76 150 208 267q80 -60 160 -226q66 -135 100 -263l4 2l-27 221v153q0 96 -67.5 161t-163.5 65q-144 0 -216 -128q-34 -60 -34 -136v-56h-76zM205 119q-1 -61 63 -61q68 0 68 67q0 61 -66 61t-65 -67z" />
<glyph unicode="&#xc6;" horiz-adv-x="901" d="M30 123q0 56 35 92t91 36q34 0 65 -16v257q1 82 95 120q-52 34 -172 62q46 72 148 116q93 40 185 40q194 0 270 -107q35 -50 35 -121v-1100h-76v1096q0 82 -78 126q-64 36 -155 36q-120 0 -211 -66q84 -22 164 -78q-102 -48 -120 -96q-9 -24 -9 -59v-336 q0 -54 -37.5 -94.5t-91.5 -40.5q-80 0 -120 66q-18 30 -18 67zM100 127q0 -71 67 -71q63 0 63 63q0 71 -70 71q-60 0 -60 -63z" />
<glyph unicode="&#xc7;" horiz-adv-x="710" d="M56 432v125q0 116 80 194.5t196 78.5q106 0 182 -70q78 -72 78 -178v-470q0 -68 -63 -104q-29 -18 -64 -18q-137 0 -137 139q0 55 36 93t90 38q38 0 62 -18v332q0 104 -89 156q-42 24 -95 24q-86 0 -143.5 -58.5t-57.5 -144.5v-119h-75zM398 123q0 -59 58 -59q64 0 64 65 q0 59 -59 59q-63 0 -63 -65z" />
<glyph unicode="&#xc8;" horiz-adv-x="854" d="M116 0v494q0 126 73 222q85 114 239 114q102 0 168 -46q30 41 74 146l68 -32q0 -4 -26 -55q-42 -77 -63 -105q86 -58 86 -200v-538h-75v532q0 106 -54 148q-8 -6 -34 -41q-4 -6 -40 -41q38 -35 38 -87q0 -59 -40 -95.5t-99 -36.5q-65 0 -95 43l-12 -33l-130 -389h-78z M188 174l38 129l65 209q41 131 145 131q19 0 41 -8q34 34 76 90q-35 33 -127 33q-136 0 -205 -132q-33 -62 -33 -138v-314zM368 510q0 -68 68 -68q62 0 62 64q0 68 -68 68q-62 0 -62 -64z" />
<glyph unicode="&#xc9;" horiz-adv-x="973" d="M41 694q0 72 64 114q32 22 75 22q76 0 112 -64q16 -30 17 -72v-618h410v315q-57 -27 -147 -27q-74 0 -125 39q-56 42 -56 113q0 52 35.5 89.5t87.5 37.5q77 0 111 -60q16 -28 16 -67q1 -54 -59 -94q46 0 86 14q31 10 51 33v350h75v-317q24 12 73 60t61 71l53 -47 q-105 -124 -187 -164v-422h-654v76h94v502q-20 -16 -60 -17q-58 0 -95.5 37.5t-37.5 95.5zM112 692q0 -61 60 -61q72 -1 72 67q0 62 -60 62q-72 0 -72 -68zM459 518q0 -62 61 -62q58 0 58 58q0 62 -60 62t-59 -58z" />
<glyph unicode="&#xca;" horiz-adv-x="829" d="M78 438v56q0 200 158 292q72 44 170 44q72 0 120 -23q16 0 64 125l70 -31q-38 -84 -70 -133q120 -80 120 -230v-538h-75q0 88 -86 282q-85 190 -150 255q-175 -188 -203 -324q30 39 78 39q58 0 96 -36t38 -93q0 -58 -40 -95.5t-98 -37.5q-86 0 -122 76q-17 34 -17 80 q1 200 229 458l124 140q0 14 -80 14q-144 0 -216 -128q-34 -60 -34 -136v-56h-76zM207 119q1 -66 65 -66q68 0 68 72q0 63 -62 63q-72 0 -71 -69zM444 588q34 -26 96 -136q60 -108 70 -153l33 -82v311q0 52 -24 106q-28 62 -72 76z" />
<glyph unicode="&#xcb;" horiz-adv-x="878" d="M39 694q0 74 63 115q32 21 74 21q127 0 127 -140v-561l21 29l307 410q-103 50 -103 132q0 55 38 92.5t94 37.5q58 0 95 -36t37 -94q0 -60 -67 -124l35 -21v-555h-76v522l-385 -522h-67v578q-18 -16 -60 -17q-58 0 -95.5 37.5t-37.5 95.5zM110 692q0 -61 62 -61 q70 -1 70 67q0 62 -62 62q-70 0 -70 -68zM600 700q0 -44 70 -84q52 46 51 84q1 60 -61 60q-24 0 -42 -18t-18 -42z" />
<glyph unicode="&#xcc;" horiz-adv-x="948" d="M39 694q1 74 63 114q32 20 74 20q127 0 127 -134v-485l41 145l150 465h71l193 -596v586q0 23 20 45q-28 -28 -78 -28q-78 0 -117 65q-18 29 -18 69q0 58 37.5 97t95.5 39q50 0 87 -29.5t43 -77.5q2 -9 2 -21q2 3 6 23q2 5 6 23l47 47l53 -53l-112 -111v-897h-76l-226 712 l-22 -84l-203 -628h-69v580q-24 -18 -64 -19q-74 0 -112 64q-18 29 -19 69zM106 690q0 -62 60 -62q70 0 70 70q0 62 -61 62q-69 0 -69 -70zM637 956q0 -62 61 -61q66 -1 66 65q0 62 -60 62q-67 0 -67 -66z" />
<glyph unicode="&#xcd;" horiz-adv-x="807" d="M53 438v56q1 200 159 293q72 43 169 43q125 0 215 -82q92 -84 92 -210v-538h-485v482q0 58 36.5 96t94.5 38t97.5 -39t39.5 -95t-36.5 -95t-92.5 -39q-36 0 -64 18v-290h334v456q0 96 -68 161t-165 65q-135 0 -211 -120q-39 -62 -39 -144v-56h-76zM272 484q0 -66 68 -66 q60 0 60 61q0 66 -68 66q-60 1 -60 -61z" />
<glyph unicode="&#xce;" horiz-adv-x="782" d="M104 688q0 70 88 110q70 32 149 32q138 0 218 -66q8 6 29 28l74 84l54 -49q0 -5 -71 -75l-33 -33q52 -57 52 -181v-538h-541v362q0 60 36 98t95 38q58 0 98 -38q39 -40 39 -98q-1 -56 -33 -93q-34 -39 -89 -39q-37 0 -71 18v-172h390v510q0 54 -29 86 q-100 -100 -235 -100q-76 0 -136 22q-84 31 -84 94zM180 688q0 -29 76 -41q36 -6 66 -6q104 0 186 74q-58 45 -162 45q-46 0 -98 -16q-68 -21 -68 -56zM190 364q0 -66 68 -65q60 -1 60 61q0 66 -68 66q-60 0 -60 -62z" />
<glyph unicode="&#xcf;" horiz-adv-x="735" d="M53 688q0 58 36 99q37 43 95 43q78 0 115 -62q17 -28 17 -68q0 -70 -59 -106q-27 -18 -61 -18q38 -18 72 -19q214 0 272 262h76v-819h-76v555l28 151l-7 2q-20 -90 -97.5 -153.5t-169.5 -63.5q-132 0 -204 98q-36 49 -37 99zM123 696q-1 -64 63 -63q64 -1 64 63t-64 64 t-63 -64z" />
<glyph unicode="&#xd0;" horiz-adv-x="735" d="M82 166q0 70 62 110q32 20 75 21q75 0 111 -62q16 -29 16 -67q0 -88 -78 -108q116 0 210 66q90 63 140 171l66 -43q-56 -112 -152 -180q-104 -74 -222 -74q-136 0 -200 84q-28 35 -28 82zM82 688q0 74 66 113q31 18 71 18q56 0 91.5 -36.5t35.5 -92.5q0 -88 -78 -108 q156 0 270 116q48 51 80 121l66 -43q-56 -112 -152 -180q-104 -74 -222 -74q-137 0 -201 84q-27 35 -27 82zM152 166q0 -68 68 -68q62 0 62 62q0 68 -68 68q-62 0 -62 -62zM152 688q0 -68 68 -68q62 0 62 62q0 68 -68 68q-62 0 -62 -62z" />
<glyph unicode="&#xd1;" d="M-466 1097q0 72 59 111q31 19 69 19q50 0 86 -35t36 -84q0 -64 -34 -86q76 0 187 86q95 74 149 150l57 -50q-80 -102 -185 -172q-124 -82 -235 -82q-78 0 -128 32q-61 38 -61 111zM-400 1102q0 -62 62 -62q58 0 57 58q1 62 -61 61q-58 0 -58 -57z" />
<glyph unicode="&#xd2;" horiz-adv-x="710" d="M62 565v15q0 105 80 178q80 72 186 72q114 0 188 -71q76 -71 76 -185v-574h-76v559q0 122 -90 175q-42 24 -98 24q-76 0 -134 -54t-59 -130v-9h-73z" />
<glyph unicode="&#xd3;" horiz-adv-x="710" d="M-297 1174q0 65 45 109.5t109 44.5q65 0 109.5 -45t44.5 -109q1 -84 -71 -130q-36 -24 -83 -24q-65 0 -109.5 45t-44.5 109zM-227 1174q0 -36 24.5 -60t59.5 -24q36 0 60 24.5t24 59.5q0 36 -24.5 60t-59.5 24q-36 0 -60 -24.5t-24 -59.5zM62 565v15q0 105 80 178 q80 72 186 72q114 0 188 -71q76 -71 76 -185v-574h-76v559q0 122 -90 175q-42 24 -98 24q-76 0 -134 -54t-59 -130v-9h-73z" />
<glyph unicode="&#xd4;" d="M-774 1026q0 74 67 148q55 62 149 82q46 10 103 10q139 0 243 -91q94 -83 93 -223q-229 84 -459 84q-112 0 -196 -10zM-704 1077q60 29 196 29q214 0 332 -90q-30 88 -120 136q-78 42 -181 42q-149 0 -227 -117z" />
<glyph unicode="&#xd5;" d="M-774 1026q0 58 46 119q42 57 96 85q72 36 184 36q108 0 200 -65q46 -33 76 -77q-18 36 -18 86v191h71v-449q-229 84 -459 84q-112 0 -196 -10zM-704 1077q60 29 196 29q214 0 332 -90q-30 88 -120 136q-78 42 -181 42q-149 0 -227 -117z" />
<glyph unicode="&#xd6;" d="M-774 1026q0 73 66 146q56 62 154 83q48 11 106 11q62 0 92 -16q-8 14 -8 42q0 68 54 99q26 14 60 14q52 0 84.5 -31.5t32.5 -83.5q-1 -90 -93 -108q106 -50 107 -230q-229 84 -459 84q-112 0 -196 -10zM-704 1077q60 29 196 29q214 0 332 -90q-30 88 -120 136 q-78 42 -181 42q-149 0 -227 -117zM-308 1288q0 -59 58 -59q56 0 56 55q0 60 -58 60q-56 0 -56 -56z" />
<glyph unicode="&#xd7;" d="M-774 1026q0 58 44 116q40 52 96 84q73 40 161 40q78 0 129 -20v155h72v-187q12 0 51 -38t45 -53q-14 65 -14 87v191h71v-449q-229 84 -459 84q-112 0 -196 -10zM-704 1077q60 29 196 29q214 0 332 -90q-30 88 -120 136q-78 42 -181 42q-149 0 -227 -117z" />
<glyph unicode="&#xd8;" d="M-358 -190q0 70 60 104q28 16 64 16q66 0 100 -54q18 -28 18 -66v-256h-72v102q0 26 19 56q5 10 9 14q-34 -34 -84 -35q-68 1 -100 57q-14 28 -14 62zM-293 -192q-1 -58 57 -58t58 58t-58 58t-57 -58z" />
<glyph unicode="&#xd9;" d="M-536 -192q0 68 60 104q28 16 64 17q53 0 85.5 -34t32.5 -87v-185h106v303h72v-372h-302v69h52v31q0 26 19 56q3 5 9 14q-34 -34 -84 -34q-68 0 -100 56q-14 27 -14 62zM-471 -194q-1 -58 57 -57q58 -1 58 57t-58 58t-57 -58z" />
<glyph unicode="&#xda;" d="M-280 -213q0 44 30 74.5t74 30.5t74 -30.5t30 -74.5t-30 -74.5t-74 -30.5t-74 31t-30 74z" />
<glyph unicode="&#xdb;" d="M-926 1026q0 74 68 148q56 62 149 82q47 10 103 10q139 0 242 -91q94 -83 94 -223q-228 84 -459 84q-113 0 -197 -10zM-856 1077q60 29 197 29q213 0 331 -90q-31 88 -120 136q-78 42 -180 42q-150 0 -228 -117z" />
<glyph unicode="&#xdc;" d="M-926 1026q0 58 46 119q42 57 97 85q71 36 183 36q80 0 156 -38q78 -38 120 -104q-18 36 -18 86v191h72v-449q-228 84 -459 84q-113 0 -197 -10zM-856 1077q60 29 197 29q213 0 331 -90q-31 88 -120 136q-78 42 -180 42q-150 0 -228 -117z" />
<glyph unicode="&#xdd;" d="M-926 1026q0 73 67 146q56 62 153 83q48 11 106 11q61 0 92 -16q-8 14 -8 42q0 68 54 99q26 14 60 14q52 0 85 -31.5t33 -83.5q0 -90 -93 -108q107 -50 107 -230q-228 84 -459 84q-113 0 -197 -10zM-856 1077q60 29 197 29q213 0 331 -90q-31 88 -120 136q-78 42 -180 42 q-150 0 -228 -117zM-459 1288q-1 -59 57 -59q56 0 56 55q0 60 -58 60q-56 0 -55 -56z" />
<glyph unicode="&#xde;" d="M-926 1026q0 58 45 116q40 52 95 84q74 40 162 40q78 0 128 -20v155h72v-187q12 0 51.5 -38t44.5 -53q-14 65 -14 87v191h72v-449q-228 84 -459 84q-113 0 -197 -10zM-856 1077q60 29 197 29q213 0 331 -90q-31 88 -120 136q-78 42 -180 42q-150 0 -228 -117z" />
<glyph unicode="&#xdf;" horiz-adv-x="895" d="M116 0v960h290v131h66v-131h6q186 0 260 -111q36 -55 36 -131q0 -134 -137 -213q183 -59 183 -235q0 -164 -135 -234q-69 -36 -167 -36h-46v-136h-66v136h-290zM208 78h198v378h-198v-378zM208 538h198v342h-198v-342zM472 78h36q133 0 190 84q28 44 28 108q0 90 -63 140 q-57 46 -151 46h-40v-378zM472 538h18q120 0 170 82q24 38 24 92q0 161 -212 167v-341z" />
<glyph unicode="&#xe0;" horiz-adv-x="413" d="M142 123v696h75v-581q31 18 65 18q70 0 108 -60q20 -31 20 -73q0 -58 -40 -95.5t-98 -37.5t-94 37.5t-36 95.5zM209 121q0 -63 63 -63q66 0 66 65q0 63 -62 63q-66 0 -67 -65z" />
<glyph unicode="&#xe1;" horiz-adv-x="770" d="M142 123v696h75v-581q31 18 65 18q70 0 108 -60q20 -31 20 -73q0 -58 -40 -95.5t-98 -37.5t-94 37.5t-36 95.5zM209 121q0 -63 63 -63q66 0 66 65q0 63 -62 63q-66 0 -67 -65zM498 123v696h75v-581q31 18 65 18q74 0 110 -64q18 -30 18 -69q0 -58 -40 -95.5t-98 -37.5 t-94 37.5t-36 95.5zM565 121q0 -63 63 -63q66 0 66 65q0 63 -62 63q-66 0 -67 -65z" />
<glyph unicode="&#xe2;" horiz-adv-x="497" d="M0 1080q48 234 250 233q148 1 216 -117q32 -55 32 -129v-23h-74q0 84 -45 140q-48 59 -131 59q-57 0 -106 -39.5t-60 -95.5l219 -131v-737q26 18 62 18q59 0 93 -39q32 -36 32 -96q0 -80 -61 -115q-31 -18 -75 -18q-120 0 -120 135v817zM293 123q-1 -67 61 -67 q68 0 68 63q0 67 -64 67q-65 0 -65 -63z" />
<glyph unicode="&#xe3;" horiz-adv-x="569" d="M0 1120q0 122 96 182q44 26 100 27q190 0 189 -252v-847q30 26 67 26q118 0 118 -133t-138 -133q-118 0 -118 129v948q0 191 -134 191q-72 0 -102 -64q14 12 48 12q64 0 94 -50q14 -23 14 -54q0 -50 -31 -84q-32 -36 -80 -35q-123 -1 -123 137zM68 1098q0 -54 52 -54 t52 50q0 54 -52 55t-52 -51zM379 116q1 -66 61 -65q66 0 66 68q0 67 -66 67q-60 0 -61 -70z" />
<glyph unicode="&#xe4;" horiz-adv-x="532" d="M2 1401h66q26 -102 26 -196q0 -55 -10 -142l49 71l139 208h76v-1100q26 16 57 16q123 0 123 -135q0 -133 -137 -133q-117 0 -117 129v1067q0 24 8 50l4 20q-2 -8 -18 -36l-172 -243h-74q0 23 3 82q3 83 3 134q0 86 -26 208zM336 121q0 -68 60 -68q68 0 67 68q1 69 -61 69 q-66 0 -66 -69z" />
<glyph unicode="&#xe5;" horiz-adv-x="710" d="M62 565v15q0 105 80 178q80 72 186 72q114 0 188 -71q76 -71 76 -185v-1072h-76v1057q0 122 -90 175q-42 24 -98 24q-76 0 -134 -54t-59 -130v-9h-73z" />
<glyph unicode="&#xe6;" horiz-adv-x="770" d="M56 645q0 109 98 153q47 22 111 21q147 0 167 -88q0 88 142 88h76v-1317h-76v1242h-18q-78 0 -86 -99l-2 -25h-66l-2 25q-8 107 -140 107q-28 0 -42 -6q100 -8 100 -118q0 -52 -36 -87t-89 -35q-81 0 -119 66q-18 32 -18 73zM126 639q0 -65 66 -65q60 0 60 61 q0 65 -66 65q-60 0 -60 -61z" />
<glyph unicode="&#xe7;" d="M-593 1120q1 162 187 162q23 0 95 -7q36 -3 65 -3q84 0 136 59l48 -49q-74 -79 -182 -79q-32 -1 -78 5q-84 10 -106 10q-100 0 -100 -98q0 -52 50 -94q16 40 53 96q77 -110 135 -118q-24 27 -24 55q0 40 26 67t66 27q58 0 86 -49q12 -24 12 -54q0 -106 -138 -106 q-84 0 -152 82q-6 0 -40 -82q-140 54 -139 176zM-263 1057q0 -45 45 -45q41 0 41 42q0 46 -45 46q-41 0 -41 -43z" />
<glyph unicode="&#xe8;" d="M-194 1483v287h78v-287h-78z" />
<glyph unicode="&#xe9;" d="M-484 1724q0 44 31 74.5t76 30.5q51 0 85 -39q32 -36 32 -90q0 -128 -117 -190q112 0 198 69q79 66 117 176l62 -27q-93 -270 -391 -270q-40 0 -72 6l-4 44q93 46 139 128q-16 -22 -51 -22q-47 0 -76 32q-29 30 -29 78zM-428 1720q0 -54 53 -53q51 -1 51 53q0 52 -51 52 q-53 0 -53 -52z" />
<glyph unicode="&#xea;" d="M-552 1626q0 60 30 102q34 48 90 48q60 0 102 -48q30 48 79 48q53 0 85 -36q30 -34 30 -86q0 -64 -45 -120q74 22 99 98q16 48 16 148h66q0 -214 -114 -272q-60 -30 -157 -30v38q78 42 78 126q1 70 -63 70q-46 0 -60 -45h-24q-20 47 -84 47q-44 0 -68 -36 q-12 -20 -12 -48q0 -34 8 -41q9 59 71 59q36 0 63.5 -25t27.5 -61q0 -38 -26 -62q-24 -24 -62 -24q-70 0 -110 74q-20 34 -20 76zM-462 1566q0 -42 44 -42q32 0 32 34q0 44 -42 44q-34 0 -34 -36z" />
<glyph unicode="&#xeb;" d="M-336 1626v72h142v141h71v-141h141v-72h-141v-143h-71v143h-142z" />
<glyph unicode="&#xec;" d="M-346 1422q0 163 221 167q123 1 197 59l30 -54q-74 -64 -254 -64q-42 0 -61 -10q92 -12 92 -103q0 -48 -31.5 -80.5t-79.5 -32.5q-66 0 -98 53q-16 27 -16 65zM-287 1422q1 -60 57 -60q52 0 52 49q0 59 -60 59q-50 0 -49 -48z" />
<glyph unicode="&#xed;" d="M-424 1174q0 65 45 109.5t109 44.5q65 0 109.5 -45t44.5 -109q0 -84 -72 -130q-36 -24 -82 -24q-65 0 -109.5 45t-44.5 109zM-354 1174q0 -36 24 -60t60 -24t60 24.5t24 59.5q0 36 -24 60t-60 24t-60 -24t-24 -60z" />
<glyph unicode="&#xee;" d="M-379 1082q0 62 65 105q56 37 124 40q-32 1 -59 25q-29 24 -29 56q0 62 82 93q58 23 132 23q64 0 99 -17l-47 -31q-30 6 -50 6q-44 0 -90 -16q-58 -23 -59 -62q0 -32 50 -50q38 -14 77 -15l-22 -47q-72 0 -126 -22q-73 -30 -73 -90q0 -48 82 -48q62 0 98 25l37 -29 q-58 -47 -156 -47q-136 1 -135 101z" />
<glyph unicode="&#xef;" horiz-adv-x="641" d="M66 374q0 144 126 220q56 34 128 34q144 0 221 -125q35 -57 35 -129q0 -106 -74 -180q-76 -75 -182 -75q-144 0 -220 126q-34 56 -34 129zM98 374q0 -93 65 -157.5t157 -64.5q93 0 158 64.5t65 157.5q0 94 -65 158q-66 64 -158 64q-120 0 -188 -103q-34 -52 -34 -119z M212 374q0 45 32 76.5t76 31.5q46 0 77.5 -31.5t31.5 -76.5q0 -59 -50 -92q-27 -16 -59 -16q-45 0 -76.5 31.5t-31.5 76.5z" />
<glyph unicode="&#xf0;" horiz-adv-x="948" d="M125 272q0 140 107 224q98 78 241 78q210 0 307 -146q44 -66 44 -156q0 -138 -109 -220q-98 -74 -242 -74q-210 0 -305 142q-43 64 -43 152zM200 272q0 -134 130 -195q62 -30 143 -30q114 1 190 55q87 62 87 170q0 110 -86 172q-77 56 -191 56q-163 0 -237 -108 q-36 -52 -36 -120z" />
<glyph unicode="&#xf1;" horiz-adv-x="948" d="M151 274q1 172 163 258q70 38 152 38q146 0 243 -89q101 -92 101 -235q0 -118 -60 -212.5t-167 -143.5l-39 52q86 40 141 122q56 84 56 177q1 149 -133 223q-62 34 -140 34q-143 0 -213 -114q-32 -52 -32 -120q-1 -92 47 -148q50 -60 141 -60l11 2q-110 19 -111 125 q0 55 39 94t94 39q62 0 99.5 -41.5t37.5 -104.5q0 -82 -61 -128q-56 -42 -140 -42q-110 0 -172 84q-56 76 -57 190zM376 182q0 -68 68 -68t68 68t-68 68t-68 -68z" />
<glyph unicode="&#xf2;" horiz-adv-x="997" d="M72 774l55 56q47 -30 65 -62q20 -40 21 -102v-596h617v313q0 103 -82 103q-76 0 -120 -103q-58 105 -146 105q-110 0 -124 -120q34 50 94 50q58 0 97 -37t39 -95t-39 -95t-97 -37q-92 0 -132 91q-20 45 -21 105q0 122 91 181q40 26 92 26q92 0 146 -84q35 84 130 84 q70 0 108 -50q36 -45 35 -116v-391h-759v631q0 122 -70 143zM385 291q-1 -68 65 -68q64 -1 64 63q0 68 -66 68q-64 0 -63 -63z" />
<glyph unicode="&#xf3;" horiz-adv-x="997" d="M108 254q0 123 66 209q72 94 192 94q149 0 199 -131q40 131 158 131q155 0 155 -178v-379h-71v366q0 118 -92 118q-45 0 -73 -41q-38 -54 -38 -136v-307h-72v284q0 84 -41 140q-47 62 -127 62q-86 0 -138 -80q-48 -70 -48 -160q0 -56 16 -102q18 48 28 60q34 44 98 44 q56 0 93 -38t37 -94t-37 -91t-93 -35q-100 0 -159 85q-53 75 -53 179zM250 119q0 -66 66 -66q64 -1 63 63q1 66 -65 66q-64 0 -64 -63z" />
<glyph unicode="&#xf4;" horiz-adv-x="997" d="M123 278q1 108 71 178q68 66 162 86q48 10 98 9l228 -6q38 -1 78 5q80 12 132 58q28 26 46 62l60 -44q-34 -69 -103 -106q-61 -34 -135 -43q-39 -5 -78 -4l-228 6q-50 2 -95 -10q-101 -25 -143 -97q-22 -38 -22 -88q0 -220 306 -220q-136 54 -136 196q0 85 69 127 q30 19 71 19q135 0 135 -136q0 -120 -131 -120q-34 0 -54 16q72 -96 232 -96h162v-70h-400q-210 0 -288 127q-38 61 -37 151zM440 270q0 -68 68 -67q68 -1 68 67t-68 68t-68 -68z" />
<glyph unicode="&#xf5;" horiz-adv-x="997" d="M122 274q0 96 78 172q74 70 172 86q-88 44 -89 138q0 62 43.5 104.5t105.5 42.5q68 0 111 -40q43 -39 43 -107q0 -77 -68 -125q56 -7 116 -7q240 0 302 132l60 -44q-74 -156 -354 -155q-70 1 -189 15q-149 0 -223 -106q-36 -54 -37 -126q-1 -190 305 -190 q-136 54 -135 196q1 85 69 127q30 19 70 19q58 0 97 -38q39 -36 39 -94q0 -124 -132 -124q-33 0 -53 16q71 -96 231 -96h162v-70h-399q-143 0 -229 64q-96 72 -96 210zM351 667q-1 -68 81 -110q84 41 84 113q0 78 -84 78q-33 0 -57 -24t-24 -57zM439 270q-1 -68 67 -67 q68 -1 68 67t-68 68t-67 -68z" />
<glyph unicode="&#xf6;" horiz-adv-x="948" d="M100 774l56 56q86 -48 86 -164v-172q120 58 250 57q336 1 336 -235q0 -146 -138 -241q-123 -85 -275 -85q-94 0 -166 38q-89 46 -89 132q0 58 40 96.5t99 38.5q71 0 107 -61q18 -32 18 -78q0 -48 -39 -82q-18 -14 -40 -16q20 -10 30 -11q124 0 247 72q134 79 134 195 q0 88 -94 132q-72 33 -172 33q-172 0 -320 -88v240q0 122 -70 143zM232 168q0 -68 67 -68q59 0 59 60q0 68 -67 68q-59 0 -59 -60z" />
<glyph unicode="&#xf7;" horiz-adv-x="997" d="M96 309q0 139 106 215q46 32 105 33q101 -1 125 -103q34 102 121 103q59 -1 96 -43q35 -40 35 -100v-344h39q55 0 75 46q9 20 9 50v500q0 62 21 102q16 32 65 62l53 -56q-18 0 -47 -34q-21 -31 -21 -109v-465q0 -76 -40 -120q-42 -46 -115 -46h-111v366q0 110 -67 111 q-73 -1 -91 -111h-46q-12 112 -113 113q-56 0 -94 -61q-33 -54 -33 -113q0 -89 37 -174q0 54 35 85q36 32 90 32q77 0 114 -64q17 -30 17 -68q1 -126 -139 -126q-114 0 -175 108q-51 88 -51 211zM258 119q0 -66 66 -66q64 -1 63 63q1 66 -65 66q-64 0 -64 -63z" />
<glyph unicode="&#xf8;" horiz-adv-x="997" d="M122 278q0 108 70 177q68 67 162 87q48 10 100 9l228 -6q64 -2 116 12q98 25 140 113l59 -44q-37 -80 -117 -118q-40 -20 -85 -27q-53 -10 -113 -8l-228 6q-66 1 -113 -15q-91 -32 -127 -96q-20 -36 -20 -92q0 -92 34 -142q52 126 120 126q42 0 84 -32q56 -44 176 -135 q0 88 44 128q32 29 80 29q57 0 96.5 -36t39.5 -93q0 -81 -70 -123q-34 -20 -82 -20q-62 0 -130 46q-16 10 -115 84q-95 72 -125 72q-48 0 -105 -190q-119 120 -119 288zM667 116q-1 -66 65 -65q68 0 68 68q0 65 -65 65q-68 0 -68 -68z" />
<glyph unicode="&#xf9;" horiz-adv-x="997" d="M90 276q0 120 74 200q76 80 197 81q176 0 245 -166q0 168 134 168q78 1 124 -73l12 -19q50 27 50 103v114q0 42 -5 55q-9 21 -37 39l48 52q38 -21 51 -46q15 -28 15 -92v-122q0 -102 -74 -158q-40 -28 -76 -35q-36 109 -106 109q-82 0 -82 -130q0 -54 20 -100l58 -129 q28 -61 63 -81l12 -7l-35 -57q-26 0 -58 38q-26 30 -40 60l-96 221q-80 185 -222 185q-90 0 -146 -64q-56 -60 -56 -150q0 -140 112 -200q-22 26 -22 65q0 56 38 94.5t95 38.5q76 0 115 -66q18 -30 18 -69q0 -67 -56 -109q-50 -36 -120 -36q-140 0 -214 140q-36 66 -36 146z M316 133q0 -65 63 -65q65 0 65 65t-65 65q-63 0 -63 -65z" />
<glyph unicode="&#xfa;" horiz-adv-x="837" d="M39 688q0 58 37 100t94 42q74 0 112 -58q19 -30 19 -72q0 -55 -33.5 -90.5t-87.5 -35.5q60 -16 70 -17q138 1 218 121q40 59 58 141h76v-819h-76v555l27 151l-6 2q-23 -93 -96 -154q-76 -64 -170 -64q-139 0 -211 101q-30 42 -31 97zM108 696q0 -64 64 -63q64 -1 64 63 t-64 64t-64 -64zM696 0v815h72v-815h-72z" />
<glyph unicode="&#xfb;" horiz-adv-x="1622" d="M49 377q0 225 158 325q75 48 176 48q104 0 217 -66l-6 -90q-98 72 -209 72q-122 0 -188 -94q-57 -82 -57 -210q0 -166 110 -235q56 -35 139 -35q89 0 153 51q50 40 98 126q36 73 70 145q32 -48 124 -152l57 76q19 26 63 78q16 0 46 -54l59 -106q21 30 73 102q38 54 52 54 q6 0 102 -133q48 -66 81 -66q94 0 120 92q9 31 31 113h74l-26 -110q-24 -106 -108 -150q-36 -18 -79 -18q-89 0 -143 80l-54 83l-64 -88q-38 -53 -62 -53q-16 0 -66 78l-42 65q-96 -139 -120 -139q-16 0 -62 53q-10 12 -40 49q-106 -260 -324 -260q-222 0 -310 168 q-42 82 -43 201z" />
<glyph unicode="&#xfc;" d="M-358 -700q0 52 36 86t88 34q53 0 85.5 -34t32.5 -86v-300h-72v146q0 26 19 56q5 10 9 14q-34 -34 -84 -35q-68 1 -100 57q-14 28 -14 62zM-293 -702q-1 -58 57 -58t58 58t-58 58t-57 -58z" />
<glyph unicode="&#xfd;" d="M-536 -704q0 52 36 87t88 35q53 0 85.5 -34t32.5 -88v-226h106v346h72v-416h-302v70h52v73q0 26 19 56q5 9 9 13q-34 -34 -84 -34q-51 0 -82.5 34t-31.5 84zM-471 -705q-1 -57 57 -57t58 57t-58 57t-57 -57z" />
<glyph unicode="&#xfe;" d="M-280 -600q0 44 30 74.5t74 30.5q56 -1 88 -49q16 -24 16 -56q0 -44 -30 -74t-74 -30t-74 30t-30 74z" />
<glyph unicode="&#xff;" horiz-adv-x="450" />
<glyph unicode="&#x152;" horiz-adv-x="782" d="M96 576l2 20q10 106 96 168q78 56 189 57q77 0 179 -27q44 -12 58 -12q6 2 15 86l71 -10q-6 -48 -11 -98q-15 -60 -60 -60q-21 0 -122 25t-137 25q-160 0 -206 -117q57 31 164 31q102 0 190 -22q134 -34 134 -106l-84 -536h-72l-90 258q-2 16 -6 35q0 6 2 41 q-36 -70 -116 -70q-66 0 -105 64q-21 32 -21 76q0 56 38 94t94 38q96 0 128 -96l84 -258l16 -88h6l6 136l44 294q0 38 -127 58q-82 12 -158 12q-105 0 -201 -18zM236 400q0 -64 63 -64t63 64t-63 63q-63 1 -63 -63z" />
<glyph unicode="&#x153;" d="M-498 1422q0 163 222 167q123 1 196 59l31 -54q-74 -64 -254 -64q-41 0 -61 -10q92 -12 92 -103q0 -48 -32 -80.5t-79 -32.5q-68 0 -100 56q-15 26 -15 62zM-438 1422q0 -60 56 -60q52 0 52 49q0 59 -59 59q-49 0 -49 -48z" />
<glyph unicode="&#x160;" d="M-336 1092v72h142v140h71v-140h141v-72h-141v-144h-71v144h-142z" />
<glyph unicode="&#x161;" d="M-703 1626q-1 60 29 102q34 48 90 48q60 0 102 -48q30 48 80 48q52 0 83.5 -35t31.5 -87q1 -64 -45 -120q74 22 98 98q16 48 16 148h66q0 -214 -112 -270q-60 -32 -158 -32v38q78 42 78 126q0 70 -64 70q-46 0 -60 -45h-24q-20 47 -83 47q-43 0 -68 -36q-13 -20 -13 -48 q0 -34 8 -41q10 59 72 59q37 0 63.5 -25t26.5 -61q0 -38 -25 -62t-63 -24q-70 0 -110 74q-19 34 -19 76zM-613 1566q0 -42 43 -42q33 0 33 34q0 44 -43 44q-33 0 -33 -36z" />
<glyph unicode="&#x178;" horiz-adv-x="1245" d="M62 674q46 70 146 115q94 41 185 41q195 0 272 -107q35 -50 35 -121v-526h350v743h76v-819h-502v598q0 82 -79 126q-64 36 -154 36q-120 0 -211 -66q81 -22 164 -78q-144 -62 -144 -155v-231q28 26 64 26q58 0 96 -38t38 -95q0 -77 -67 -115q-31 -18 -71 -18 q-78 0 -114 64q-17 30 -17 69v354q1 99 103 135q-52 34 -170 62zM196 119q0 -61 63 -61q69 0 69 67q0 61 -62 61q-70 0 -70 -67z" />
<glyph unicode="&#x192;" d="M-666 1227q0 50 34.5 83.5t84.5 33.5q59 0 95 -44q34 -40 34 -100q0 -140 -129 -211q124 1 220 77q93 74 131 194l69 -27q-98 -301 -424 -301q-54 0 -92 8l-4 47q99 43 155 139q-18 -20 -59 -20q-63 0 -97 54q-18 28 -18 67zM-602 1222q0 -58 60 -58q56 0 56 56 q0 60 -59 60q-57 0 -57 -58z" />
<glyph unicode="&#x2c6;" d="M-514 1227q0 50 34 83.5t84 33.5q76 0 112 -70q18 -32 18 -74q0 -140 -130 -211q124 0 220 76q92 75 131 195l69 -27q-98 -301 -424 -301q-54 0 -92 8l-4 47q100 43 156 139q-18 -20 -60 -20q-66 0 -99 58q-15 27 -15 63zM-450 1222q0 -58 59 -58q57 0 57 56q0 60 -60 60 q-56 0 -56 -58z" />
<glyph unicode="&#x2dc;" d="M-346 1483v287h76v-287h-76z" />
<glyph unicode="&#xe00;" horiz-adv-x="205" />
<glyph unicode="&#xe01;" horiz-adv-x="819" d="M62 674q46 70 146 115q94 41 185 41q195 0 272 -107q35 -50 35 -121v-602h-76v598q0 82 -79 126q-64 36 -154 36q-120 0 -211 -66q81 -22 164 -78q-102 -44 -123 -96q-10 -24 -10 -59v-461h-76v494q1 84 97 118q-52 34 -170 62z" />
<glyph unicode="&#xe02;" horiz-adv-x="770" d="M40 606q0 116 94 184q56 40 156 40q82 0 135 -44q56 -46 56 -126q0 -34 -36 -110t-36 -100v-374h166v743h76v-819h-420v76h103v387q0 28 33.5 98.5t33.5 96.5q-1 89 -101 102q-86 0 -130 -29q94 0 124 -60q14 -30 14 -70q0 -71 -60 -111q-32 -20 -76 -21q-78 0 -114 67 q-18 32 -18 70zM110 608q0 -66 64 -66q66 0 65 66q1 64 -65 64q-64 0 -64 -64z" />
<glyph unicode="&#xe03;" horiz-adv-x="819" d="M44 592q0 70 48 150q54 88 120 88q22 0 36 -11l79 -61l78 59q17 13 29 13q16 0 69 -60t53 -78q0 -8 -86 -112q-16 -18 -16 -52v-452h168v743h76v-819h-422v76h102v462q0 56 64 116q28 26 28 34q0 12 -16 31t-28 19q-20 0 -96 -68q-86 84 -122 84q-30 0 -62 -38 q-30 -34 -36 -67q28 29 84 29q54 0 88.5 -38t34.5 -93q0 -59 -37.5 -93t-97.5 -34q-138 0 -138 172zM122 553q0 -65 64 -65q66 0 66 65q0 63 -66 63q-64 0 -64 -63z" />
<glyph unicode="&#xe04;" horiz-adv-x="854" d="M116 0v494q0 142 84 236q88 100 228 100q178 0 264 -132q43 -66 43 -160v-538h-75v532q0 130 -110 197q-52 31 -118 31q-132 0 -206 -118q-40 -62 -40 -150v-324l44 135l61 209q38 131 146 131q56 0 94.5 -39.5t38.5 -95.5q0 -58 -39.5 -97t-98.5 -39q-76 0 -98 50 l-10 -33l-130 -389h-78zM366 510q0 -68 70 -68q62 0 62 62q0 68 -70 68q-62 0 -62 -62z" />
<glyph unicode="&#xe05;" horiz-adv-x="854" d="M121 0v635q0 105 79 159q36 26 83 25q72 0 104 -27q17 -12 53 -44q14 14 58 44q36 27 102 27q82 1 122 -79q18 -38 18 -88v-652h-76v592q0 154 -86 154q-32 0 -52 -15l-86 -65l-86 65q-22 17 -60 17q-96 0 -97 -156v-422l41 129l62 176q46 133 138 133q136 0 136 -135 q0 -79 -62 -113q-28 -16 -67 -16q-57 0 -103 56l-16 -54l-127 -346h-78zM375 477q-1 -65 65 -65q64 0 64 65q0 63 -64 63q-66 0 -65 -63z" />
<glyph unicode="&#xe06;" horiz-adv-x="997" d="M60 596q0 69 50 148q54 86 116 86q26 0 40 -11l77 -61l78 59q17 13 29 13q16 0 69 -60.5t53 -77.5q0 -15 -38 -58l-50 -58q-14 -16 -14 -48v-186q210 -40 340 -232l-10 74v635h76v-819h-76q0 28 -92 130q-74 81 -168 118q-47 18 -70 20v-186q0 -42 -35 -68 q-31 -24 -75 -24q-96 0 -152 84q-28 42 -28 98q0 88 65 134q57 40 149 40v192q0 51 64 115q30 30 30 35q0 12 -16 31t-28 19q-22 0 -99 -68q-87 84 -121 84q-30 0 -62 -38q-31 -36 -36 -67q27 29 88 29q66 0 100 -56q18 -30 19 -75q0 -58 -38.5 -92.5t-96.5 -34.5 q-138 0 -138 176zM138 553q0 -65 64 -65q66 0 66 65q0 63 -66 63q-64 0 -64 -63zM255 168q0 -42 30.5 -74t72.5 -32q36 0 36 50v158q-140 0 -139 -102z" />
<glyph unicode="&#xe07;" horiz-adv-x="641" d="M12 440l56 56l336 -344q9 -9 22 -29l28 -41l-8 55v379q0 36 23 76q-33 -35 -86 -35q-68 1 -107 61q-20 30 -20 70q0 84 68 124q30 18 69 18q50 0 89.5 -38t39.5 -88v-704h-76zM326 692q0 -64 63 -64q61 0 61 62q0 64 -63 64q-61 0 -61 -62z" />
<glyph unicode="&#xe08;" horiz-adv-x="782" d="M51 424v74q-1 200 139 289q64 41 152 41q136 0 226 -75q96 -79 96 -213v-540h-72l-119 344q-15 40 -23 58q-26 -46 -96 -46q-76 0 -112 64q-16 30 -16 68q0 68 58 106q28 18 66 18q106 0 140 -104l88 -268l20 -74v370q0 112 -111 183q-58 37 -137 37q-114 0 -172 -80 q-52 -70 -51 -188v-64h-76zM297 486q-1 -64 61 -64t62 64q0 62 -62 61q-62 1 -61 -61z" />
<glyph unicode="&#xe09;" horiz-adv-x="829" d="M58 420v62q0 202 158 302q71 46 165 46q138 0 229.5 -87t91.5 -219v-274q88 -22 88 -125q0 -54 -36 -92.5t-90 -38.5q-75 0 -113 50q-19 24 -19 52q0 24 4 33q-50 -40 -172 -129h-75v358q-93 20 -93 128q0 55 40 94q40 38 94 38q56 0 94.5 -37t38.5 -93q-1 -100 -99 -130 v-274q226 172 262 172v266q0 102 -73 168q-70 64 -174 64q-131 0 -205 -121q-38 -63 -39 -151v-62h-77zM266 488q0 -64 64 -64t63 64q1 64 -63 63q-64 1 -64 -63zM592 131q0 -67 68 -67q64 0 63 63q1 67 -67 67q-64 0 -64 -63z" />
<glyph unicode="&#xe0a;" horiz-adv-x="782" d="M22 606q0 98 78 159q72 59 171 59q113 0 227 -80l144 140l53 -50l-131 -132l96 -69v-633h-404v76h95v448q-1 62 33 102q24 28 65 62q-94 66 -180 66q-98 0 -133 -46q18 8 34 9q70 0 104 -58q18 -32 18 -74q0 -54 -42.5 -92.5t-97.5 -38.5q-130 0 -130 152zM93 594 q0 -66 63 -66q66 0 66 66q0 64 -66 64q-63 0 -63 -64zM428 76h156v522l-74 54q-69 -64 -77 -88q-5 -12 -5 -44v-444z" />
<glyph unicode="&#xe0b;" horiz-adv-x="782" d="M35 604q1 74 41 144q46 82 114 82q22 0 36 -11l77 -65l78 63q17 13 29 13t100 -80l135 134l53 -50l-130 -132l96 -86v-616h-410v76h100v462q0 52 54 105l55 55q-49 48 -59 48q-12 0 -99 -76q-87 84 -121 84q-30 0 -56 -35q-22 -30 -26 -63q39 22 66 22q56 0 90.5 -37 t34.5 -94q0 -52 -36.5 -89.5t-86.5 -37.5q-134 0 -135 184zM100 553q0 -65 64 -65q66 0 66 65q0 63 -66 63q-64 0 -64 -63zM432 76h156v510l-76 66q-58 -52 -70 -80q-10 -20 -10 -44v-452z" />
<glyph unicode="&#xe0c;" horiz-adv-x="1222" d="M64 674q44 70 147 115q95 41 185 41q200 0 274 -111q32 -50 32 -117v-266q92 -12 186 -80q88 -64 140 -148v711h76v-819h-76q-6 44 -87 123q-71 67 -123 97q-76 42 -116 44v-182q0 -92 -90 -92q-82 0 -128 88q-23 42 -23 91q0 76 45 123q44 46 120 50v256q0 82 -79 126 q-64 36 -154 36q-121 0 -211 -66q86 -22 164 -78q-139 -60 -139 -155v-227q23 22 59 22q82 0 119 -64q17 -30 17 -69q0 -76 -68 -115q-32 -18 -72 -18q-58 0 -94.5 37t-36.5 96v354q1 83 103 135q-52 34 -170 62zM205 119q0 -61 61 -61q64 0 64 67q0 61 -62 61 q-64 0 -63 -67zM532 170q0 -38 20 -70q22 -38 58 -38q20 0 21 50v158q-99 -2 -99 -100z" />
<glyph unicode="&#xe0d;" horiz-adv-x="1245" d="M62 674q46 70 146 115q94 41 185 41q195 0 272 -107q35 -50 35 -121v-526h350v743h76v-819h-502v598q0 82 -79 126q-64 36 -154 36q-120 0 -211 -66q81 -22 164 -78q-144 -62 -144 -155v-231q28 26 64 26q58 0 96 -38t38 -95q0 -77 -67 -115q-31 -18 -71 -18 q-78 0 -114 64q-17 30 -17 69v354q1 99 103 135q-52 34 -170 62zM196 119q0 -61 63 -61q69 0 69 67q0 61 -62 61q-70 0 -70 -67zM596 -188q0 56 40 92q40 34 96 34q55 0 92.5 -39t37.5 -94q0 -57 -49 -89q71 4 139 76q66 70 78 142l78 -18q-29 -120 -116.5 -191t-211.5 -71 q-112 0 -162 76q-22 34 -22 82zM664 -194q0 -68 67 -68q65 0 65 66q0 68 -67 67q-65 1 -65 -65z" />
<glyph unicode="&#xe0e;" horiz-adv-x="901" d="M30 123q0 56 35 92t91 36q34 0 65 -16v257q1 82 95 120q-52 34 -172 62q46 72 148 116q93 40 185 40q194 0 270 -107q35 -50 35 -121v-897l-198 -201l-178 119q-28 17 -40 55v-30q0 -57 -40 -99.5t-98 -42.5q-86 0 -127 70q-19 32 -19 76q0 57 40 98t97 41q67 -1 97 -33 q-16 20 -17 42v106h69v-170l206 -134l132 134v862q0 82 -78 126q-64 36 -155 36q-120 0 -211 -66q84 -22 164 -78q-102 -48 -120 -96q-9 -24 -9 -59v-336q0 -54 -37.5 -94.5t-91.5 -40.5q-80 0 -120 66q-18 30 -18 67zM100 127q0 -71 67 -71q63 0 63 63q0 71 -70 71 q-60 0 -60 -63zM158 -346q0 -74 70 -74q28 0 49.5 21t21.5 49q0 74 -76 74q-26 0 -45.5 -21.5t-19.5 -48.5z" />
<glyph unicode="&#xe0f;" horiz-adv-x="901" d="M30 123q0 56 35 92t91 36q34 0 65 -16v257q1 84 95 120q-52 34 -172 62q46 72 148 116q93 40 185 40q194 0 270 -107q35 -50 35 -121v-946l-147 -152l-93 92l-90 -92q-27 28 -77 84q-9 14 -15 33q-8 -45 -40 -79q-34 -36 -80 -36q-94 0 -138 70q-20 32 -20 76q0 57 40 98 t97 41q59 -1 97 -35q-16 22 -17 44v106h69v-201l84 -103l90 89l89 -89l75 80v916q0 82 -78 126q-64 36 -155 36q-120 0 -211 -66q84 -22 164 -78q-102 -48 -120 -96q-9 -24 -9 -59v-336q0 -54 -37.5 -94.5t-91.5 -40.5q-80 0 -120 66q-18 30 -18 67zM100 127q0 -71 67 -71 q63 0 63 63q0 71 -70 71q-60 0 -60 -63zM158 -346q0 -74 76 -74q66 0 65 70q0 74 -76 74q-65 0 -65 -70z" />
<glyph unicode="&#xe10;" horiz-adv-x="782" d="M-22 -375q0 73 62 113q30 20 72 20q52 0 86 -28q-16 31 -16 43v145h72v-240l82 -104l88 88l88 -88l74 76v30q4 22 14 36q-31 -34 -86 -34q-125 0 -125 130q0 57 39.5 93.5t95.5 36.5q60 0 97 -38q35 -38 35 -98v-185l-142 -143l-90 90l-88 -90l-66 74q-17 18 -24 50 q-12 -122 -138 -122q-62 0 -97 42q-33 40 -33 103zM47 -377q0 -69 65 -69q68 0 68 63q0 69 -70 69q-64 0 -63 -63zM96 576l2 20q10 106 96 168q78 56 189 57q77 0 179 -27q44 -12 58 -12q6 2 15 86l71 -10q-6 -48 -11 -98q-15 -60 -60 -60q-21 0 -122 25t-137 25 q-160 0 -206 -117q57 31 164 31q102 0 190 -22q134 -34 134 -106l-84 -536h-72l-90 258q-2 16 -6 35q0 6 2 41q-36 -70 -116 -70q-66 0 -105 64q-21 32 -21 76q0 56 38 94t94 38q96 0 128 -96l84 -258l16 -88h6l6 136l44 294q0 38 -127 58q-82 12 -158 12q-105 0 -201 -18z M236 400q0 -64 63 -64t63 64t-63 63q-63 1 -63 -63zM456 -194q0 -62 69 -62q63 0 63 68q0 62 -66 61q-66 1 -66 -67z" />
<glyph unicode="&#xe11;" horiz-adv-x="1032" d="M42 592q0 70 48 150q54 88 120 88q22 0 36 -11l79 -61l78 59q17 13 29 13q22 0 92 -86q30 -38 30 -52q0 -8 -86 -112q-16 -18 -16 -52v-315l58 164l159 442h51q190 -1 191 -207v-612h-76v616q-1 128 -103 128h-12l-274 -744h-70v538q0 56 64 116q28 26 28 34q0 12 -16 31 t-28 19q-20 0 -96 -68q-86 84 -122 84q-30 0 -62 -38q-30 -34 -36 -67q28 29 84 29q54 0 88.5 -38t34.5 -93q0 -77 -64 -111q-30 -16 -71 -16q-138 0 -138 172zM120 553q0 -65 64 -65q66 0 66 65q0 63 -66 63q-64 0 -64 -63z" />
<glyph unicode="&#xe12;" horiz-adv-x="1257" d="M121 0v635q0 105 79 159q36 26 83 25q72 0 104 -27q17 -12 53 -44q14 14 58 44q36 27 102 27q82 1 122 -79q18 -38 18 -88v-316q76 0 182 -76q96 -68 141 -141v700h75v-819h-75q-11 48 -89 122q-66 66 -120 96q-76 44 -114 48v-184q0 -92 -93 -92q-74 0 -115 56 q-36 50 -36 126q0 100 78 146q38 22 90 24v250q0 154 -86 154q-32 0 -52 -15l-86 -65l-86 65q-22 17 -60 17q-96 0 -97 -156v-494l171 205q28 33 56 47q-70 0 -112 59q-20 28 -21 64q1 79 61 115q30 18 72 18q80 0 118 -62q17 -28 17 -66q0 -52 -45 -106l-315 -372h-78z M358 484q0 -74 70 -74q64 0 64 67q0 70 -70 70q-64 1 -64 -63zM570 172q0 -110 75 -110q19 0 19 50v158q-94 -2 -94 -98z" />
<glyph unicode="&#xe13;" horiz-adv-x="1245" d="M62 674q46 70 146 115q94 41 185 41q195 0 272 -107q35 -50 35 -121v-504q68 70 158 127q110 70 184 70v524h76v-535q94 -38 94 -140q0 -96 -72 -136q-34 -18 -81 -18q-149 0 -149 152q0 6 16 48q-10 -10 -36 -30l-92 -68q-66 -50 -104 -92h-70v598q0 82 -79 126 q-64 36 -154 36q-120 0 -211 -66q81 -22 164 -78q-100 -42 -124 -96q-12 -25 -11 -59v-227q23 20 57 20q78 0 114 -64q18 -29 18 -67q0 -77 -67 -115q-31 -18 -71 -18q-58 0 -92 38q-33 36 -33 95v371q1 84 97 118q-52 34 -170 62zM200 121q0 -63 62 -63q66 0 66 67 q0 63 -64 63t-64 -67zM973 146q0 -88 88 -88q86 0 86 84q0 88 -88 88q-86 0 -86 -84z" />
<glyph unicode="&#xe14;" horiz-adv-x="854" d="M116 0v494q0 140 86 236q88 100 226 100q180 0 268 -142q40 -66 39 -150v-538h-75v532q0 98 -70 163q-67 63 -164 63q-132 0 -200 -130q-32 -60 -32 -134v-380l178 224q10 14 42 38l12 9q-127 0 -127 123q0 55 39.5 95t93.5 40q78 0 118 -64q18 -29 18 -65 q0 -52 -46 -108l-334 -406h-72zM366 510q0 -68 70 -68q62 0 62 62q0 68 -70 68q-62 0 -62 -62z" />
<glyph unicode="&#xe15;" horiz-adv-x="854" d="M116 0v635q0 72 45 126q47 58 117 58q72 0 104 -27q18 -12 54 -44q14 14 57 44q37 27 103 27q74 0 116 -71q22 -38 23 -96v-652h-76v592q1 154 -85 154q-32 0 -52 -15l-86 -65l-86 65q-22 17 -61 17q-97 0 -97 -156v-494l172 205q8 10 28 28q6 5 27 19q-51 0 -91 36 q-42 36 -42 87q0 60 37 96.5t97 36.5q58 0 96 -36q38 -34 38 -92q0 -52 -44 -106l-316 -372h-78zM354 484q0 -74 70 -74q64 0 63 67q1 70 -69 70q-64 1 -64 -63z" />
<glyph unicode="&#xe16;" horiz-adv-x="819" d="M62 674q46 70 146 115q94 41 185 41q195 0 272 -107q35 -50 35 -121v-602h-76v598q0 82 -79 126q-64 36 -154 36q-120 0 -211 -66q81 -22 164 -78q-98 -42 -124 -98q-12 -26 -13 -59v-231q15 22 63 22q54 0 91 -37t37 -90q0 -77 -67 -115q-31 -18 -71 -18 q-58 0 -91.5 36.5t-33.5 94.5v373q1 84 97 118q-52 34 -170 62zM198 116q0 -60 63 -60q69 0 69 65q0 61 -67 61q-65 0 -65 -66z" />
<glyph unicode="&#xe17;" horiz-adv-x="878" d="M39 694q0 74 63 115q32 21 74 21q58 0 94.5 -38t36.5 -98v-494l21 82l30 97l158 440h54q190 -1 190 -207v-612h-76v616q0 128 -102 128h-12l-271 -744h-69v559q0 4 1 12.5t1 12.5q-24 -22 -60 -23q-74 -1 -112 59q-20 30 -21 74zM110 692q0 -61 63 -61q69 -1 69 67 q0 62 -64 62q-68 0 -68 -68z" />
<glyph unicode="&#xe18;" horiz-adv-x="735" d="M62 522l2 18q14 122 118 208q102 82 226 82q176 0 264 -138l-60 -40q-70 106 -215 106q-83 0 -154 -50t-102 -128q25 12 49 12h248q154 0 154 -142v-450h-476v76h97v446h-151zM289 76h227v366q0 80 -70 80h-157v-446z" />
<glyph unicode="&#xe19;" horiz-adv-x="878" d="M39 694q0 74 63 115q32 21 74 21q78 0 112 -64q16 -30 17 -72v-586q145 141 289 176q64 15 90 15v520h76v-535q94 -38 94 -140q0 -154 -154 -154q-89 0 -130 73q-19 35 -19 79q0 36 22 64q-26 0 -102 -53q-63 -43 -95 -73q-46 -42 -73 -80h-75v576q-18 -14 -54 -15 q-74 0 -114 59q-21 30 -21 74zM110 692q0 -61 62 -61q70 -1 70 67q0 62 -62 62q-70 0 -70 -68zM614 146q0 -88 88 -88q86 0 86 84q0 88 -88 88q-86 0 -86 -84z" />
<glyph unicode="&#xe1a;" horiz-adv-x="913" d="M41 694q0 72 64 114q32 22 75 22q76 0 112 -64q16 -30 17 -72v-618h410v743h75v-819h-654v76h94v504q-20 -16 -64 -17q-56 0 -92.5 37.5t-36.5 93.5zM112 692q0 -61 62 -61q70 -1 70 67q0 62 -62 62q-70 0 -70 -68z" />
<glyph unicode="&#xe1b;" horiz-adv-x="913" d="M41 694q0 72 64 114q32 22 75 22q76 0 112 -64q16 -30 17 -72v-618h410v1182h75v-1258h-654v76h94v504q-20 -16 -64 -17q-56 0 -92.5 37.5t-36.5 93.5zM112 692q0 -61 62 -61q70 -1 70 67q0 62 -62 62q-70 0 -70 -68z" />
<glyph unicode="&#xe1c;" horiz-adv-x="829" d="M123 0v694q0 58 37 97t94 39q58 0 97.5 -39t39.5 -97q-1 -79 -63 -116q-28 -17 -66 -17q-38 1 -64 23v-463l187 229h65l185 -223v692h75v-819h-69l-223 272l-224 -272h-71zM188 698q0 -68 66 -67q66 0 66 61q0 68 -70 68q-62 0 -62 -62z" />
<glyph unicode="&#xe1d;" horiz-adv-x="829" d="M123 0v694q0 58 37 97t94 39q58 0 97.5 -39t39.5 -97q-1 -79 -63 -116q-28 -17 -66 -17q-38 1 -64 23v-463l187 229h65l185 -223v1131h75v-1258h-69l-223 272l-224 -272h-71zM188 698q0 -68 66 -67q66 0 66 61q0 68 -70 68q-62 0 -62 -62z" />
<glyph unicode="&#xe1e;" horiz-adv-x="948" d="M39 694q0 74 63 115q32 21 74 21q60 0 94 -39q34 -37 33 -97v-474l41 134l150 465h71l163 -503l26 -103v606h76v-819h-76l-201 628l-25 107l-22 -107l-203 -628h-75v580q-22 -18 -62 -19q-54 0 -91 40q-36 37 -36 93zM110 692q0 -61 62 -61q70 -1 70 67q0 62 -61 62 q-71 0 -71 -68z" />
<glyph unicode="&#xe1f;" horiz-adv-x="948" d="M39 694q0 74 63 115q32 21 74 21q60 0 94 -39q34 -37 33 -97v-474l41 134l150 465h71l163 -503l26 -103v1045h76v-1258h-76l-201 628l-25 107l-22 -107l-203 -628h-75v580q-22 -18 -62 -19q-54 0 -91 40q-36 37 -36 93zM110 692q0 -61 62 -61q70 -1 70 67q0 62 -61 62 q-71 0 -71 -68z" />
<glyph unicode="&#xe20;" horiz-adv-x="901" d="M30 123q0 56 35 92t91 36q34 0 65 -16v257q1 82 95 120q-52 34 -172 62q46 72 148 116q93 40 185 40q194 0 270 -107q35 -50 35 -121v-602h-76v598q0 82 -78 126q-64 36 -155 36q-120 0 -211 -66q84 -22 164 -78q-102 -48 -120 -96q-9 -24 -9 -59v-336q0 -54 -37.5 -94.5 t-91.5 -40.5q-80 0 -120 66q-18 30 -18 67zM100 127q0 -71 67 -71q63 0 63 63q0 71 -70 71q-60 0 -60 -63z" />
<glyph unicode="&#xe21;" horiz-adv-x="889" d="M66 694q0 58 39.5 97t97.5 39q59 0 95 -38t36 -98v-385q80 -1 198 -71q110 -66 162 -136v717h76v-819h-76q0 25 -115 117q-141 113 -247 119v-154q0 -92 -90 -92q-92 0 -142 82q-22 36 -22 82q0 78 52 121q48 41 128 41v262q-10 -16 -58 -17q-59 0 -96.5 37.5t-37.5 95.5 zM137 692q0 -61 63 -61q68 -1 68 67q0 62 -62 62q-68 0 -69 -68zM154 154q0 -34 26 -63t60 -29q20 0 20 50v128q-106 0 -106 -86z" />
<glyph unicode="&#xe22;" horiz-adv-x="819" d="M70 604q0 78 50 146q58 80 154 80q64 0 104 -36q42 -38 42 -100q0 -78 -63 -116q-28 -18 -66 -17q-123 0 -123 115q0 6 2 24q-26 -26 -26 -91t42 -111q43 -48 107 -48h119v-71h-107q-77 0 -77 -90v-213h394v743h76v-819h-546v278q0 106 57 130q-139 46 -139 196zM217 698 q1 -68 69 -67q62 0 62 61q0 68 -68 68q-63 0 -63 -62z" />
<glyph unicode="&#xe23;" horiz-adv-x="616" d="M76 540v42q0 106 75 178q74 70 181 70q146 0 219 -118q33 -54 33 -124v-31h-72v17q0 108 -88 162q-40 24 -92 24q-166 0 -186 -160q38 12 56 12h224v-500q0 -50 -38 -86t-89 -36q-139 0 -139 139q0 56 37 93.5t92 37.5q34 0 61 -18v298h-274zM230 125q0 -61 61 -61 q63 0 63 63q0 61 -61 61q-63 0 -63 -63z" />
<glyph unicode="&#xe24;" horiz-adv-x="819" d="M62 674q46 70 146 115q94 41 185 41q195 0 272 -107q35 -50 35 -121v-1100h-76v1096q0 82 -79 126q-64 36 -154 36q-120 0 -211 -66q81 -22 164 -78q-100 -42 -124 -96q-12 -25 -11 -59v-219q18 16 51 16q78 0 118 -61q20 -31 20 -74q0 -77 -67 -115q-31 -18 -71 -18 q-72 0 -106 56q-18 30 -19 75v373q1 84 97 118q-52 34 -170 62zM196 119q0 -61 65 -61q67 0 67 67q0 61 -62 61q-70 0 -70 -67z" />
<glyph unicode="&#xe25;" horiz-adv-x="829" d="M78 438v56q0 200 158 292q72 44 170 44q126 0 215 -84q89 -86 89 -208v-538h-75q1 88 -87 284q-86 192 -152 258q-52 -48 -112 -147q-56 -95 -78 -167q32 28 64 28q58 0 98 -37.5t40 -95.5t-40 -95.5t-98 -37.5q-62 0 -101 45q-38 45 -38 107q1 122 59 236 q76 150 208 267q80 -60 160 -226q66 -135 100 -263l4 2l-27 221v153q0 96 -67.5 161t-163.5 65q-144 0 -216 -128q-34 -60 -34 -136v-56h-76zM205 119q-1 -61 63 -61q68 0 68 67q0 61 -66 61t-65 -67z" />
<glyph unicode="&#xe26;" horiz-adv-x="901" d="M30 123q0 56 35 92t91 36q34 0 65 -16v257q1 82 95 120q-52 34 -172 62q46 72 148 116q93 40 185 40q194 0 270 -107q35 -50 35 -121v-1100h-76v1096q0 82 -78 126q-64 36 -155 36q-120 0 -211 -66q84 -22 164 -78q-102 -48 -120 -96q-9 -24 -9 -59v-336 q0 -54 -37.5 -94.5t-91.5 -40.5q-80 0 -120 66q-18 30 -18 67zM100 127q0 -71 67 -71q63 0 63 63q0 71 -70 71q-60 0 -60 -63z" />
<glyph unicode="&#xe27;" horiz-adv-x="710" d="M56 432v125q0 116 80 194.5t196 78.5q106 0 182 -70q78 -72 78 -178v-470q0 -68 -63 -104q-29 -18 -64 -18q-137 0 -137 139q0 55 36 93t90 38q38 0 62 -18v332q0 104 -89 156q-42 24 -95 24q-86 0 -143.5 -58.5t-57.5 -144.5v-119h-75zM398 123q0 -59 58 -59q64 0 64 65 q0 59 -59 59q-63 0 -63 -65z" />
<glyph unicode="&#xe28;" horiz-adv-x="854" d="M116 0v494q0 126 73 222q85 114 239 114q102 0 168 -46q30 41 74 146l68 -32q0 -4 -26 -55q-42 -77 -63 -105q86 -58 86 -200v-538h-75v532q0 106 -54 148q-8 -6 -34 -41q-4 -6 -40 -41q38 -35 38 -87q0 -59 -40 -95.5t-99 -36.5q-65 0 -95 43l-12 -33l-130 -389h-78z M188 174l38 129l65 209q41 131 145 131q19 0 41 -8q34 34 76 90q-35 33 -127 33q-136 0 -205 -132q-33 -62 -33 -138v-314zM368 510q0 -68 68 -68q62 0 62 64q0 68 -68 68q-62 0 -62 -64z" />
<glyph unicode="&#xe29;" horiz-adv-x="973" d="M41 694q0 72 64 114q32 22 75 22q76 0 112 -64q16 -30 17 -72v-618h410v315q-57 -27 -147 -27q-74 0 -125 39q-56 42 -56 113q0 52 35.5 89.5t87.5 37.5q77 0 111 -60q16 -28 16 -67q1 -54 -59 -94q46 0 86 14q31 10 51 33v350h75v-317q24 12 73 60t61 71l53 -47 q-105 -124 -187 -164v-422h-654v76h94v502q-20 -16 -60 -17q-58 0 -95.5 37.5t-37.5 95.5zM112 692q0 -61 60 -61q72 -1 72 67q0 62 -60 62q-72 0 -72 -68zM459 518q0 -62 61 -62q58 0 58 58q0 62 -60 62t-59 -58z" />
<glyph unicode="&#xe2a;" horiz-adv-x="829" d="M78 438v56q0 200 158 292q72 44 170 44q72 0 120 -23q16 0 64 125l70 -31q-38 -84 -70 -133q120 -80 120 -230v-538h-75q0 88 -86 282q-85 190 -150 255q-175 -188 -203 -324q30 39 78 39q58 0 96 -36t38 -93q0 -58 -40 -95.5t-98 -37.5q-86 0 -122 76q-17 34 -17 80 q1 200 229 458l124 140q0 14 -80 14q-144 0 -216 -128q-34 -60 -34 -136v-56h-76zM207 119q1 -66 65 -66q68 0 68 72q0 63 -62 63q-72 0 -71 -69zM444 588q34 -26 96 -136q60 -108 70 -153l33 -82v311q0 52 -24 106q-28 62 -72 76z" />
<glyph unicode="&#xe2b;" horiz-adv-x="878" d="M39 694q0 74 63 115q32 21 74 21q127 0 127 -140v-561l21 29l307 410q-103 50 -103 132q0 55 38 92.5t94 37.5q58 0 95 -36t37 -94q0 -60 -67 -124l35 -21v-555h-76v522l-385 -522h-67v578q-18 -16 -60 -17q-58 0 -95.5 37.5t-37.5 95.5zM110 692q0 -61 62 -61 q70 -1 70 67q0 62 -62 62q-70 0 -70 -68zM600 700q0 -44 70 -84q52 46 51 84q1 60 -61 60q-24 0 -42 -18t-18 -42z" />
<glyph unicode="&#xe2c;" horiz-adv-x="948" d="M39 694q1 74 63 114q32 20 74 20q127 0 127 -134v-485l41 145l150 465h71l193 -596v586q0 23 20 45q-28 -28 -78 -28q-78 0 -117 65q-18 29 -18 69q0 58 37.5 97t95.5 39q50 0 87 -29.5t43 -77.5q2 -9 2 -21q2 3 6 23q2 5 6 23l47 47l53 -53l-112 -111v-897h-76l-226 712 l-22 -84l-203 -628h-69v580q-24 -18 -64 -19q-74 0 -112 64q-18 29 -19 69zM106 690q0 -62 60 -62q70 0 70 70q0 62 -61 62q-69 0 -69 -70zM637 956q0 -62 61 -61q66 -1 66 65q0 62 -60 62q-67 0 -67 -66z" />
<glyph unicode="&#xe2d;" horiz-adv-x="807" d="M53 438v56q1 200 159 293q72 43 169 43q125 0 215 -82q92 -84 92 -210v-538h-485v482q0 58 36.5 96t94.5 38t97.5 -39t39.5 -95t-36.5 -95t-92.5 -39q-36 0 -64 18v-290h334v456q0 96 -68 161t-165 65q-135 0 -211 -120q-39 -62 -39 -144v-56h-76zM272 484q0 -66 68 -66 q60 0 60 61q0 66 -68 66q-60 1 -60 -61z" />
<glyph unicode="&#xe2e;" horiz-adv-x="782" d="M104 688q0 70 88 110q70 32 149 32q138 0 218 -66q8 6 29 28l74 84l54 -49q0 -5 -71 -75l-33 -33q52 -57 52 -181v-538h-541v362q0 60 36 98t95 38q58 0 98 -38q39 -40 39 -98q-1 -56 -33 -93q-34 -39 -89 -39q-37 0 -71 18v-172h390v510q0 54 -29 86 q-100 -100 -235 -100q-76 0 -136 22q-84 31 -84 94zM180 688q0 -29 76 -41q36 -6 66 -6q104 0 186 74q-58 45 -162 45q-46 0 -98 -16q-68 -21 -68 -56zM190 364q0 -66 68 -65q60 -1 60 61q0 66 -68 66q-60 0 -60 -62z" />
<glyph unicode="&#xe2f;" horiz-adv-x="735" d="M53 688q0 58 36 99q37 43 95 43q78 0 115 -62q17 -28 17 -68q0 -70 -59 -106q-27 -18 -61 -18q38 -18 72 -19q214 0 272 262h76v-819h-76v555l28 151l-7 2q-20 -90 -97.5 -153.5t-169.5 -63.5q-132 0 -204 98q-36 49 -37 99zM123 696q-1 -64 63 -63q64 -1 64 63t-64 64 t-63 -64z" />
<glyph unicode="&#xe30;" horiz-adv-x="735" d="M82 166q0 70 62 110q32 20 75 21q75 0 111 -62q16 -29 16 -67q0 -88 -78 -108q116 0 210 66q90 63 140 171l66 -43q-56 -112 -152 -180q-104 -74 -222 -74q-136 0 -200 84q-28 35 -28 82zM82 688q0 74 66 113q31 18 71 18q56 0 91.5 -36.5t35.5 -92.5q0 -88 -78 -108 q156 0 270 116q48 51 80 121l66 -43q-56 -112 -152 -180q-104 -74 -222 -74q-137 0 -201 84q-27 35 -27 82zM152 166q0 -68 68 -68q62 0 62 62q0 68 -68 68q-62 0 -62 -62zM152 688q0 -68 68 -68q62 0 62 62q0 68 -68 68q-62 0 -62 -62z" />
<glyph unicode="&#xe31;" d="M-466 1097q0 72 59 111q31 19 69 19q50 0 86 -35t36 -84q0 -64 -34 -86q76 0 187 86q95 74 149 150l57 -50q-80 -102 -185 -172q-124 -82 -235 -82q-78 0 -128 32q-61 38 -61 111zM-400 1102q0 -62 62 -62q58 0 57 58q1 62 -61 61q-58 0 -58 -57z" />
<glyph unicode="&#xe32;" horiz-adv-x="710" d="M62 565v15q0 105 80 178q80 72 186 72q114 0 188 -71q76 -71 76 -185v-574h-76v559q0 122 -90 175q-42 24 -98 24q-76 0 -134 -54t-59 -130v-9h-73z" />
<glyph unicode="&#xe33;" horiz-adv-x="710" d="M-297 1174q0 65 45 109.5t109 44.5q65 0 109.5 -45t44.5 -109q1 -84 -71 -130q-36 -24 -83 -24q-65 0 -109.5 45t-44.5 109zM-227 1174q0 -36 24.5 -60t59.5 -24q36 0 60 24.5t24 59.5q0 36 -24.5 60t-59.5 24q-36 0 -60 -24.5t-24 -59.5zM62 565v15q0 105 80 178 q80 72 186 72q114 0 188 -71q76 -71 76 -185v-574h-76v559q0 122 -90 175q-42 24 -98 24q-76 0 -134 -54t-59 -130v-9h-73z" />
<glyph unicode="&#xe34;" d="M-774 1026q0 74 67 148q55 62 149 82q46 10 103 10q139 0 243 -91q94 -83 93 -223q-229 84 -459 84q-112 0 -196 -10zM-704 1077q60 29 196 29q214 0 332 -90q-30 88 -120 136q-78 42 -181 42q-149 0 -227 -117z" />
<glyph unicode="&#xe35;" d="M-774 1026q0 58 46 119q42 57 96 85q72 36 184 36q108 0 200 -65q46 -33 76 -77q-18 36 -18 86v191h71v-449q-229 84 -459 84q-112 0 -196 -10zM-704 1077q60 29 196 29q214 0 332 -90q-30 88 -120 136q-78 42 -181 42q-149 0 -227 -117z" />
<glyph unicode="&#xe36;" d="M-774 1026q0 73 66 146q56 62 154 83q48 11 106 11q62 0 92 -16q-8 14 -8 42q0 68 54 99q26 14 60 14q52 0 84.5 -31.5t32.5 -83.5q-1 -90 -93 -108q106 -50 107 -230q-229 84 -459 84q-112 0 -196 -10zM-704 1077q60 29 196 29q214 0 332 -90q-30 88 -120 136 q-78 42 -181 42q-149 0 -227 -117zM-308 1288q0 -59 58 -59q56 0 56 55q0 60 -58 60q-56 0 -56 -56z" />
<glyph unicode="&#xe37;" d="M-774 1026q0 58 44 116q40 52 96 84q73 40 161 40q78 0 129 -20v155h72v-187q12 0 51 -38t45 -53q-14 65 -14 87v191h71v-449q-229 84 -459 84q-112 0 -196 -10zM-704 1077q60 29 196 29q214 0 332 -90q-30 88 -120 136q-78 42 -181 42q-149 0 -227 -117z" />
<glyph unicode="&#xe38;" d="M-358 -190q0 70 60 104q28 16 64 16q66 0 100 -54q18 -28 18 -66v-256h-72v102q0 26 19 56q5 10 9 14q-34 -34 -84 -35q-68 1 -100 57q-14 28 -14 62zM-293 -192q-1 -58 57 -58t58 58t-58 58t-57 -58z" />
<glyph unicode="&#xe39;" d="M-536 -192q0 68 60 104q28 16 64 17q53 0 85.5 -34t32.5 -87v-185h106v303h72v-372h-302v69h52v31q0 26 19 56q3 5 9 14q-34 -34 -84 -34q-68 0 -100 56q-14 27 -14 62zM-471 -194q-1 -58 57 -57q58 -1 58 57t-58 58t-57 -58z" />
<glyph unicode="&#xe3a;" d="M-280 -213q0 44 30 74.5t74 30.5t74 -30.5t30 -74.5t-30 -74.5t-74 -30.5t-74 31t-30 74z" />
<glyph unicode="&#xe3f;" horiz-adv-x="895" d="M116 0v960h290v131h66v-131h6q186 0 260 -111q36 -55 36 -131q0 -134 -137 -213q183 -59 183 -235q0 -164 -135 -234q-69 -36 -167 -36h-46v-136h-66v136h-290zM208 78h198v378h-198v-378zM208 538h198v342h-198v-342zM472 78h36q133 0 190 84q28 44 28 108q0 90 -63 140 q-57 46 -151 46h-40v-378zM472 538h18q120 0 170 82q24 38 24 92q0 161 -212 167v-341z" />
<glyph unicode="&#xe40;" horiz-adv-x="413" d="M142 123v696h75v-581q31 18 65 18q70 0 108 -60q20 -31 20 -73q0 -58 -40 -95.5t-98 -37.5t-94 37.5t-36 95.5zM209 121q0 -63 63 -63q66 0 66 65q0 63 -62 63q-66 0 -67 -65z" />
<glyph unicode="&#xe41;" horiz-adv-x="770" d="M142 123v696h75v-581q31 18 65 18q70 0 108 -60q20 -31 20 -73q0 -58 -40 -95.5t-98 -37.5t-94 37.5t-36 95.5zM209 121q0 -63 63 -63q66 0 66 65q0 63 -62 63q-66 0 -67 -65zM498 123v696h75v-581q31 18 65 18q74 0 110 -64q18 -30 18 -69q0 -58 -40 -95.5t-98 -37.5 t-94 37.5t-36 95.5zM565 121q0 -63 63 -63q66 0 66 65q0 63 -62 63q-66 0 -67 -65z" />
<glyph unicode="&#xe42;" horiz-adv-x="497" d="M0 1080q48 234 250 233q148 1 216 -117q32 -55 32 -129v-23h-74q0 84 -45 140q-48 59 -131 59q-57 0 -106 -39.5t-60 -95.5l219 -131v-737q26 18 62 18q59 0 93 -39q32 -36 32 -96q0 -80 -61 -115q-31 -18 -75 -18q-120 0 -120 135v817zM293 123q-1 -67 61 -67 q68 0 68 63q0 67 -64 67q-65 0 -65 -63z" />
<glyph unicode="&#xe43;" horiz-adv-x="569" d="M0 1120q0 122 96 182q44 26 100 27q190 0 189 -252v-847q30 26 67 26q118 0 118 -133t-138 -133q-118 0 -118 129v948q0 191 -134 191q-72 0 -102 -64q14 12 48 12q64 0 94 -50q14 -23 14 -54q0 -50 -31 -84q-32 -36 -80 -35q-123 -1 -123 137zM68 1098q0 -54 52 -54 t52 50q0 54 -52 55t-52 -51zM379 116q1 -66 61 -65q66 0 66 68q0 67 -66 67q-60 0 -61 -70z" />
<glyph unicode="&#xe44;" horiz-adv-x="532" d="M2 1401h66q26 -102 26 -196q0 -55 -10 -142l49 71l139 208h76v-1100q26 16 57 16q123 0 123 -135q0 -133 -137 -133q-117 0 -117 129v1067q0 24 8 50l4 20q-2 -8 -18 -36l-172 -243h-74q0 23 3 82q3 83 3 134q0 86 -26 208zM336 121q0 -68 60 -68q68 0 67 68q1 69 -61 69 q-66 0 -66 -69z" />
<glyph unicode="&#xe45;" horiz-adv-x="710" d="M62 565v15q0 105 80 178q80 72 186 72q114 0 188 -71q76 -71 76 -185v-1072h-76v1057q0 122 -90 175q-42 24 -98 24q-76 0 -134 -54t-59 -130v-9h-73z" />
<glyph unicode="&#xe46;" horiz-adv-x="770" d="M56 645q0 109 98 153q47 22 111 21q147 0 167 -88q0 88 142 88h76v-1317h-76v1242h-18q-78 0 -86 -99l-2 -25h-66l-2 25q-8 107 -140 107q-28 0 -42 -6q100 -8 100 -118q0 -52 -36 -87t-89 -35q-81 0 -119 66q-18 32 -18 73zM126 639q0 -65 66 -65q60 0 60 61 q0 65 -66 65q-60 0 -60 -61z" />
<glyph unicode="&#xe47;" d="M-593 1120q1 162 187 162q23 0 95 -7q36 -3 65 -3q84 0 136 59l48 -49q-74 -79 -182 -79q-32 -1 -78 5q-84 10 -106 10q-100 0 -100 -98q0 -52 50 -94q16 40 53 96q77 -110 135 -118q-24 27 -24 55q0 40 26 67t66 27q58 0 86 -49q12 -24 12 -54q0 -106 -138 -106 q-84 0 -152 82q-6 0 -40 -82q-140 54 -139 176zM-263 1057q0 -45 45 -45q41 0 41 42q0 46 -45 46q-41 0 -41 -43z" />
<glyph unicode="&#xe48;" d="M-194 1483v287h78v-287h-78z" />
<glyph unicode="&#xe49;" d="M-484 1724q0 44 31 74.5t76 30.5q51 0 85 -39q32 -36 32 -90q0 -128 -117 -190q112 0 198 69q79 66 117 176l62 -27q-93 -270 -391 -270q-40 0 -72 6l-4 44q93 46 139 128q-16 -22 -51 -22q-47 0 -76 32q-29 30 -29 78zM-428 1720q0 -54 53 -53q51 -1 51 53q0 52 -51 52 q-53 0 -53 -52z" />
<glyph unicode="&#xe4a;" d="M-552 1626q0 60 30 102q34 48 90 48q60 0 102 -48q30 48 79 48q53 0 85 -36q30 -34 30 -86q0 -64 -45 -120q74 22 99 98q16 48 16 148h66q0 -214 -114 -272q-60 -30 -157 -30v38q78 42 78 126q1 70 -63 70q-46 0 -60 -45h-24q-20 47 -84 47q-44 0 -68 -36 q-12 -20 -12 -48q0 -34 8 -41q9 59 71 59q36 0 63.5 -25t27.5 -61q0 -38 -26 -62q-24 -24 -62 -24q-70 0 -110 74q-20 34 -20 76zM-462 1566q0 -42 44 -42q32 0 32 34q0 44 -42 44q-34 0 -34 -36z" />
<glyph unicode="&#xe4b;" d="M-336 1626v72h142v141h71v-141h141v-72h-141v-143h-71v143h-142z" />
<glyph unicode="&#xe4c;" d="M-346 1422q0 163 221 167q123 1 197 59l30 -54q-74 -64 -254 -64q-42 0 -61 -10q92 -12 92 -103q0 -48 -31.5 -80.5t-79.5 -32.5q-66 0 -98 53q-16 27 -16 65zM-287 1422q1 -60 57 -60q52 0 52 49q0 59 -60 59q-50 0 -49 -48z" />
<glyph unicode="&#xe4d;" d="M-424 1174q0 65 45 109.5t109 44.5q65 0 109.5 -45t44.5 -109q0 -84 -72 -130q-36 -24 -82 -24q-65 0 -109.5 45t-44.5 109zM-354 1174q0 -36 24 -60t60 -24t60 24.5t24 59.5q0 36 -24 60t-60 24t-60 -24t-24 -60z" />
<glyph unicode="&#xe4e;" d="M-379 1082q0 62 65 105q56 37 124 40q-32 1 -59 25q-29 24 -29 56q0 62 82 93q58 23 132 23q64 0 99 -17l-47 -31q-30 6 -50 6q-44 0 -90 -16q-58 -23 -59 -62q0 -32 50 -50q38 -14 77 -15l-22 -47q-72 0 -126 -22q-73 -30 -73 -90q0 -48 82 -48q62 0 98 25l37 -29 q-58 -47 -156 -47q-136 1 -135 101z" />
<glyph unicode="&#xe4f;" horiz-adv-x="641" d="M66 374q0 144 126 220q56 34 128 34q144 0 221 -125q35 -57 35 -129q0 -106 -74 -180q-76 -75 -182 -75q-144 0 -220 126q-34 56 -34 129zM98 374q0 -93 65 -157.5t157 -64.5q93 0 158 64.5t65 157.5q0 94 -65 158q-66 64 -158 64q-120 0 -188 -103q-34 -52 -34 -119z M212 374q0 45 32 76.5t76 31.5q46 0 77.5 -31.5t31.5 -76.5q0 -59 -50 -92q-27 -16 -59 -16q-45 0 -76.5 31.5t-31.5 76.5z" />
<glyph unicode="&#xe50;" horiz-adv-x="948" d="M125 272q0 140 107 224q98 78 241 78q210 0 307 -146q44 -66 44 -156q0 -138 -109 -220q-98 -74 -242 -74q-210 0 -305 142q-43 64 -43 152zM200 272q0 -134 130 -195q62 -30 143 -30q114 1 190 55q87 62 87 170q0 110 -86 172q-77 56 -191 56q-163 0 -237 -108 q-36 -52 -36 -120z" />
<glyph unicode="&#xe51;" horiz-adv-x="948" d="M151 274q1 172 163 258q70 38 152 38q146 0 243 -89q101 -92 101 -235q0 -118 -60 -212.5t-167 -143.5l-39 52q86 40 141 122q56 84 56 177q1 149 -133 223q-62 34 -140 34q-143 0 -213 -114q-32 -52 -32 -120q-1 -92 47 -148q50 -60 141 -60l11 2q-110 19 -111 125 q0 55 39 94t94 39q62 0 99.5 -41.5t37.5 -104.5q0 -82 -61 -128q-56 -42 -140 -42q-110 0 -172 84q-56 76 -57 190zM376 182q0 -68 68 -68t68 68t-68 68t-68 -68z" />
<glyph unicode="&#xe52;" horiz-adv-x="997" d="M72 774l55 56q47 -30 65 -62q20 -40 21 -102v-596h617v313q0 103 -82 103q-76 0 -120 -103q-58 105 -146 105q-110 0 -124 -120q34 50 94 50q58 0 97 -37t39 -95t-39 -95t-97 -37q-92 0 -132 91q-20 45 -21 105q0 122 91 181q40 26 92 26q92 0 146 -84q35 84 130 84 q70 0 108 -50q36 -45 35 -116v-391h-759v631q0 122 -70 143zM385 291q-1 -68 65 -68q64 -1 64 63q0 68 -66 68q-64 0 -63 -63z" />
<glyph unicode="&#xe53;" horiz-adv-x="997" d="M108 254q0 123 66 209q72 94 192 94q149 0 199 -131q40 131 158 131q155 0 155 -178v-379h-71v366q0 118 -92 118q-45 0 -73 -41q-38 -54 -38 -136v-307h-72v284q0 84 -41 140q-47 62 -127 62q-86 0 -138 -80q-48 -70 -48 -160q0 -56 16 -102q18 48 28 60q34 44 98 44 q56 0 93 -38t37 -94t-37 -91t-93 -35q-100 0 -159 85q-53 75 -53 179zM250 119q0 -66 66 -66q64 -1 63 63q1 66 -65 66q-64 0 -64 -63z" />
<glyph unicode="&#xe54;" horiz-adv-x="997" d="M123 278q1 108 71 178q68 66 162 86q48 10 98 9l228 -6q38 -1 78 5q80 12 132 58q28 26 46 62l60 -44q-34 -69 -103 -106q-61 -34 -135 -43q-39 -5 -78 -4l-228 6q-50 2 -95 -10q-101 -25 -143 -97q-22 -38 -22 -88q0 -220 306 -220q-136 54 -136 196q0 85 69 127 q30 19 71 19q135 0 135 -136q0 -120 -131 -120q-34 0 -54 16q72 -96 232 -96h162v-70h-400q-210 0 -288 127q-38 61 -37 151zM440 270q0 -68 68 -67q68 -1 68 67t-68 68t-68 -68z" />
<glyph unicode="&#xe55;" horiz-adv-x="997" d="M122 274q0 96 78 172q74 70 172 86q-88 44 -89 138q0 62 43.5 104.5t105.5 42.5q68 0 111 -40q43 -39 43 -107q0 -77 -68 -125q56 -7 116 -7q240 0 302 132l60 -44q-74 -156 -354 -155q-70 1 -189 15q-149 0 -223 -106q-36 -54 -37 -126q-1 -190 305 -190 q-136 54 -135 196q1 85 69 127q30 19 70 19q58 0 97 -38q39 -36 39 -94q0 -124 -132 -124q-33 0 -53 16q71 -96 231 -96h162v-70h-399q-143 0 -229 64q-96 72 -96 210zM351 667q-1 -68 81 -110q84 41 84 113q0 78 -84 78q-33 0 -57 -24t-24 -57zM439 270q-1 -68 67 -67 q68 -1 68 67t-68 68t-67 -68z" />
<glyph unicode="&#xe56;" horiz-adv-x="948" d="M100 774l56 56q86 -48 86 -164v-172q120 58 250 57q336 1 336 -235q0 -146 -138 -241q-123 -85 -275 -85q-94 0 -166 38q-89 46 -89 132q0 58 40 96.5t99 38.5q71 0 107 -61q18 -32 18 -78q0 -48 -39 -82q-18 -14 -40 -16q20 -10 30 -11q124 0 247 72q134 79 134 195 q0 88 -94 132q-72 33 -172 33q-172 0 -320 -88v240q0 122 -70 143zM232 168q0 -68 67 -68q59 0 59 60q0 68 -67 68q-59 0 -59 -60z" />
<glyph unicode="&#xe57;" horiz-adv-x="997" d="M96 309q0 139 106 215q46 32 105 33q101 -1 125 -103q34 102 121 103q59 -1 96 -43q35 -40 35 -100v-344h39q55 0 75 46q9 20 9 50v500q0 62 21 102q16 32 65 62l53 -56q-18 0 -47 -34q-21 -31 -21 -109v-465q0 -76 -40 -120q-42 -46 -115 -46h-111v366q0 110 -67 111 q-73 -1 -91 -111h-46q-12 112 -113 113q-56 0 -94 -61q-33 -54 -33 -113q0 -89 37 -174q0 54 35 85q36 32 90 32q77 0 114 -64q17 -30 17 -68q1 -126 -139 -126q-114 0 -175 108q-51 88 -51 211zM258 119q0 -66 66 -66q64 -1 63 63q1 66 -65 66q-64 0 -64 -63z" />
<glyph unicode="&#xe58;" horiz-adv-x="997" d="M122 278q0 108 70 177q68 67 162 87q48 10 100 9l228 -6q64 -2 116 12q98 25 140 113l59 -44q-37 -80 -117 -118q-40 -20 -85 -27q-53 -10 -113 -8l-228 6q-66 1 -113 -15q-91 -32 -127 -96q-20 -36 -20 -92q0 -92 34 -142q52 126 120 126q42 0 84 -32q56 -44 176 -135 q0 88 44 128q32 29 80 29q57 0 96.5 -36t39.5 -93q0 -81 -70 -123q-34 -20 -82 -20q-62 0 -130 46q-16 10 -115 84q-95 72 -125 72q-48 0 -105 -190q-119 120 -119 288zM667 116q-1 -66 65 -65q68 0 68 68q0 65 -65 65q-68 0 -68 -68z" />
<glyph unicode="&#xe59;" horiz-adv-x="997" d="M90 276q0 120 74 200q76 80 197 81q176 0 245 -166q0 168 134 168q78 1 124 -73l12 -19q50 27 50 103v114q0 42 -5 55q-9 21 -37 39l48 52q38 -21 51 -46q15 -28 15 -92v-122q0 -102 -74 -158q-40 -28 -76 -35q-36 109 -106 109q-82 0 -82 -130q0 -54 20 -100l58 -129 q28 -61 63 -81l12 -7l-35 -57q-26 0 -58 38q-26 30 -40 60l-96 221q-80 185 -222 185q-90 0 -146 -64q-56 -60 -56 -150q0 -140 112 -200q-22 26 -22 65q0 56 38 94.5t95 38.5q76 0 115 -66q18 -30 18 -69q0 -67 -56 -109q-50 -36 -120 -36q-140 0 -214 140q-36 66 -36 146z M316 133q0 -65 63 -65q65 0 65 65t-65 65q-63 0 -63 -65z" />
<glyph unicode="&#xe5a;" horiz-adv-x="837" d="M39 688q0 58 37 100t94 42q74 0 112 -58q19 -30 19 -72q0 -55 -33.5 -90.5t-87.5 -35.5q60 -16 70 -17q138 1 218 121q40 59 58 141h76v-819h-76v555l27 151l-6 2q-23 -93 -96 -154q-76 -64 -170 -64q-139 0 -211 101q-30 42 -31 97zM108 696q0 -64 64 -63q64 -1 64 63 t-64 64t-64 -64zM696 0v815h72v-815h-72z" />
<glyph unicode="&#xe5b;" horiz-adv-x="1622" d="M49 377q0 225 158 325q75 48 176 48q104 0 217 -66l-6 -90q-98 72 -209 72q-122 0 -188 -94q-57 -82 -57 -210q0 -166 110 -235q56 -35 139 -35q89 0 153 51q50 40 98 126q36 73 70 145q32 -48 124 -152l57 76q19 26 63 78q16 0 46 -54l59 -106q21 30 73 102q38 54 52 54 q6 0 102 -133q48 -66 81 -66q94 0 120 92q9 31 31 113h74l-26 -110q-24 -106 -108 -150q-36 -18 -79 -18q-89 0 -143 80l-54 83l-64 -88q-38 -53 -62 -53q-16 0 -66 78l-42 65q-96 -139 -120 -139q-16 0 -62 53q-10 12 -40 49q-106 -260 -324 -260q-222 0 -310 168 q-42 82 -43 201z" />
<glyph unicode="&#x2000;" horiz-adv-x="919" />
<glyph unicode="&#x2001;" horiz-adv-x="1839" />
<glyph unicode="&#x2002;" horiz-adv-x="919" />
<glyph unicode="&#x2003;" horiz-adv-x="1839" />
<glyph unicode="&#x2004;" horiz-adv-x="613" />
<glyph unicode="&#x2005;" horiz-adv-x="459" />
<glyph unicode="&#x2006;" horiz-adv-x="306" />
<glyph unicode="&#x2007;" horiz-adv-x="306" />
<glyph unicode="&#x2008;" horiz-adv-x="229" />
<glyph unicode="&#x2009;" horiz-adv-x="367" />
<glyph unicode="&#x200a;" horiz-adv-x="102" />
<glyph unicode="&#x2010;" horiz-adv-x="447" d="M48 330v85h352v-85h-352z" />
<glyph unicode="&#x2011;" horiz-adv-x="447" d="M48 330v85h352v-85h-352z" />
<glyph unicode="&#x2012;" horiz-adv-x="447" d="M48 330v85h352v-85h-352z" />
<glyph unicode="&#x2013;" d="M-535 1126q0 65 45 109.5t109 44.5q65 0 109.5 -45t44.5 -109q1 -84 -71 -130q-36 -24 -83 -24q-85 0 -131 72q-24 36 -23 82zM-465 1126q0 -36 24.5 -60t59.5 -24q36 0 60 24.5t24 59.5q0 36 -24.5 60t-59.5 24q-36 0 -60 -24t-24 -60z" />
<glyph unicode="&#x2014;" d="M-740 1120q0 162 187 162q23 0 95 -7q36 -3 66 -3q84 0 136 59l47 -49q-74 -79 -181 -79q-32 -1 -78 5q-84 10 -107 10q-99 0 -99 -98q0 -52 50 -94q16 40 52 96q78 -110 136 -118q-25 27 -25 55q0 40 26.5 67t66.5 27q58 0 85 -49q13 -24 13 -54q0 -106 -138 -106 q-84 0 -153 82q-6 0 -39 -82q-140 54 -140 176zM-410 1057q0 -45 46 -45q40 0 40 42q0 46 -44 46q-42 0 -42 -43z" />
<glyph unicode="&#x2018;" horiz-adv-x="298" d="M88 653v129q0 122 86 178l33 -48q-59 -40 -59 -130h53v-129h-113z" />
<glyph unicode="&#x2019;" horiz-adv-x="298" d="M86 702q60 40 60 130h-54v128h113v-128q0 -120 -86 -179z" />
<glyph unicode="&#x201a;" d="M-346 948v287h76v-287h-76z" />
<glyph unicode="&#x201c;" horiz-adv-x="522" d="M85 653v129q0 122 86 178l33 -48q-60 -40 -60 -130h54v-129h-113zM313 653v129q0 122 86 178l33 -48q-60 -40 -60 -130h54v-129h-113z" />
<glyph unicode="&#x201d;" horiz-adv-x="522" d="M85 702q60 40 60 130h-54v128h113v-128q0 -120 -86 -179zM313 702q60 40 60 130h-54v128h113v-128q0 -122 -86 -179z" />
<glyph unicode="&#x201e;" d="M-868 1116q0 168 125 168q73 0 119 -51q31 51 95 51q121 0 121 -125q0 -90 -50 -143q126 28 126 272h76q0 -174 -63 -250q-70 -84 -238 -84v42q88 48 88 140q1 76 -71 76q-50 0 -68 -48h-28q-22 50 -88 50q-92 0 -93 -92q0 -38 8 -47q11 65 77 65q104 0 104 -94 q0 -50 -46 -78q-23 -16 -53 -16q-71 0 -117 76q-24 40 -24 88zM-770 1050q0 -46 45 -46q41 0 41 40q0 48 -44 48q-42 0 -42 -42z" />
<glyph unicode="&#x2020;" d="M-522 1059q0 177 248 184q144 3 221 67l35 -60q0 -28 -129 -52q-101 -18 -156 -18q-49 0 -69 -12q102 -14 102 -114q0 -74 -60 -108q-27 -16 -63 -16q-75 0 -111 58q-18 30 -18 71zM-454 1057q0 -61 65 -61q53 0 53 56q0 62 -66 62q-52 0 -52 -57z" />
<glyph unicode="&#x2021;" d="M-194 948v287h78v-287h-78z" />
<glyph unicode="&#x2022;" d="M-617 1097q0 55 35.5 92.5t89.5 37.5q50 0 87.5 -35t37.5 -84q0 -54 -37 -86q36 0 123 45q95 49 217 191l58 -50q-196 -254 -424 -254q-116 0 -166 71q-22 31 -21 72zM-552 1102q0 -62 60 -62q58 0 58 58q0 62 -60 61q-58 0 -58 -57z" />
<glyph unicode="&#x2026;" d="M-586 1092v72h142v140h71v-140h143v-72h-143v-144h-71v144h-142z" />
<glyph unicode="&#x202f;" horiz-adv-x="367" />
<glyph unicode="&#x2030;" d="M-602 1116q0 168 126 168q72 0 118 -51q32 51 96 51q122 0 121 -125q0 -90 -51 -143q92 20 115 129q12 54 12 143h75q0 -237 -126 -300q-68 -34 -174 -34v42q88 48 88 140q0 76 -72 76q-50 0 -68 -48h-28q-22 50 -88 50q-92 0 -92 -92q0 -38 8 -47q12 65 77 65 q103 0 103 -94q0 -40 -29 -67t-69 -27q-70 0 -118 76q-24 40 -24 88zM-504 1050q0 -46 46 -46q40 0 40 40q0 48 -44 48q-42 0 -42 -42z" />
<glyph unicode="&#x2039;" d="M-372 1059q0 177 247 184q143 3 221 67l35 -60q-1 -28 -129 -52q-102 -18 -156 -18q-50 0 -69 -12q102 -14 102 -114q1 -74 -59 -108q-28 -16 -64 -16q-77 0 -112 62q-16 28 -16 67zM-305 1057q-1 -61 65 -61q54 0 54 56q0 62 -66 62q-53 0 -53 -57z" />
<glyph unicode="&#x203a;" d="M-488 1626v72h142v141h72v-141h143v-72h-143v-143h-72v143h-142z" />
<glyph unicode="&#x205f;" horiz-adv-x="459" />
<glyph unicode="&#x2122;" d="M-635 1724q0 45 31 75q32 30 76 30q64 -1 98 -57q18 -30 18 -72q0 -128 -116 -190q114 0 198 69q80 65 117 176l61 -27q-92 -270 -390 -270q-40 0 -72 6l-4 44q93 46 139 128q-15 -22 -51 -22q-58 0 -90 50q-16 26 -15 60zM-580 1720q0 -54 54 -53q52 -1 51 53 q1 52 -51 52q-54 0 -54 -52z" />
<glyph unicode="&#x2212;" horiz-adv-x="1245" d="M62 674q46 70 146 115q94 41 185 41q195 0 272 -107q35 -50 35 -121v-526h350v743h76v-819h-502v598q0 82 -79 126q-64 36 -154 36q-120 0 -211 -66q81 -22 164 -78q-144 -62 -144 -155v-231q28 26 64 26q58 0 96 -38t38 -95q0 -77 -67 -115q-31 -18 -71 -18 q-78 0 -114 64q-17 30 -17 69v354q1 99 103 135q-52 34 -170 62zM196 119q0 -61 63 -61q69 0 69 67q0 61 -62 61q-70 0 -70 -67zM596 -188q0 56 40 92q40 34 96 34q55 0 92.5 -39t37.5 -94q0 -57 -49 -89q71 4 139 76q66 70 78 142l78 -18q-29 -120 -116.5 -191t-211.5 -71 q-112 0 -162 76q-22 34 -22 82zM664 -194q0 -68 67 -68q65 0 65 66q0 68 -67 67q-65 1 -65 -65z" />
<glyph unicode="&#x25fc;" horiz-adv-x="695" d="M0 0v695h695v-695h-695z" />
<glyph unicode="&#xf700;" horiz-adv-x="782" d="M96 576l2 20q10 106 96 168q78 56 189 57q77 0 179 -27q44 -12 58 -12q6 2 15 86l71 -10q-6 -48 -11 -98q-15 -60 -60 -60q-21 0 -122 25t-137 25q-160 0 -206 -117q57 31 164 31q102 0 190 -22q134 -34 134 -106l-84 -536h-72l-90 258q-2 16 -6 35q0 6 2 41 q-36 -70 -116 -70q-66 0 -105 64q-21 32 -21 76q0 56 38 94t94 38q96 0 128 -96l84 -258l16 -88h6l6 136l44 294q0 38 -127 58q-82 12 -158 12q-105 0 -201 -18zM236 400q0 -64 63 -64t63 64t-63 63q-63 1 -63 -63z" />
<glyph unicode="&#xf701;" d="M-926 1026q0 74 68 148q56 62 149 82q47 10 103 10q139 0 242 -91q94 -83 94 -223q-228 84 -459 84q-113 0 -197 -10zM-856 1077q60 29 197 29q213 0 331 -90q-31 88 -120 136q-78 42 -180 42q-150 0 -228 -117z" />
<glyph unicode="&#xf702;" d="M-926 1026q0 58 46 119q42 57 97 85q71 36 183 36q80 0 156 -38q78 -38 120 -104q-18 36 -18 86v191h72v-449q-228 84 -459 84q-113 0 -197 -10zM-856 1077q60 29 197 29q213 0 331 -90q-31 88 -120 136q-78 42 -180 42q-150 0 -228 -117z" />
<glyph unicode="&#xf703;" d="M-926 1026q0 73 67 146q56 62 153 83q48 11 106 11q61 0 92 -16q-8 14 -8 42q0 68 54 99q26 14 60 14q52 0 85 -31.5t33 -83.5q0 -90 -93 -108q107 -50 107 -230q-228 84 -459 84q-113 0 -197 -10zM-856 1077q60 29 197 29q213 0 331 -90q-31 88 -120 136q-78 42 -180 42 q-150 0 -228 -117zM-459 1288q-1 -59 57 -59q56 0 56 55q0 60 -58 60q-56 0 -55 -56z" />
<glyph unicode="&#xf704;" d="M-926 1026q0 58 45 116q40 52 95 84q74 40 162 40q78 0 128 -20v155h72v-187q12 0 51.5 -38t44.5 -53q-14 65 -14 87v191h72v-449q-228 84 -459 84q-113 0 -197 -10zM-856 1077q60 29 197 29q213 0 331 -90q-31 88 -120 136q-78 42 -180 42q-150 0 -228 -117z" />
<glyph unicode="&#xf705;" d="M-346 948v287h76v-287h-76z" />
<glyph unicode="&#xf706;" d="M-666 1227q0 50 34.5 83.5t84.5 33.5q59 0 95 -44q34 -40 34 -100q0 -140 -129 -211q124 1 220 77q93 74 131 194l69 -27q-98 -301 -424 -301q-54 0 -92 8l-4 47q99 43 155 139q-18 -20 -59 -20q-63 0 -97 54q-18 28 -18 67zM-602 1222q0 -58 60 -58q56 0 56 56 q0 60 -59 60q-57 0 -57 -58z" />
<glyph unicode="&#xf707;" d="M-868 1116q0 168 125 168q73 0 119 -51q31 51 95 51q121 0 121 -125q0 -90 -50 -143q126 28 126 272h76q0 -174 -63 -250q-70 -84 -238 -84v42q88 48 88 140q1 76 -71 76q-50 0 -68 -48h-28q-22 50 -88 50q-92 0 -93 -92q0 -38 8 -47q11 65 77 65q104 0 104 -94 q0 -50 -46 -78q-23 -16 -53 -16q-71 0 -117 76q-24 40 -24 88zM-770 1050q0 -46 45 -46q41 0 41 40q0 48 -44 48q-42 0 -42 -42z" />
<glyph unicode="&#xf708;" d="M-586 1092v72h142v140h71v-140h143v-72h-143v-144h-71v144h-142z" />
<glyph unicode="&#xf709;" d="M-522 1059q0 177 248 184q144 3 221 67l35 -60q0 -28 -129 -52q-101 -18 -156 -18q-49 0 -69 -12q102 -14 102 -114q0 -74 -60 -108q-27 -16 -63 -16q-75 0 -111 58q-18 30 -18 71zM-454 1057q0 -61 65 -61q53 0 53 56q0 62 -66 62q-52 0 -52 -57z" />
<glyph unicode="&#xf70a;" d="M-194 948v287h78v-287h-78z" />
<glyph unicode="&#xf70b;" d="M-514 1227q0 50 34 83.5t84 33.5q76 0 112 -70q18 -32 18 -74q0 -140 -130 -211q124 0 220 76q92 75 131 195l69 -27q-98 -301 -424 -301q-54 0 -92 8l-4 47q100 43 156 139q-18 -20 -60 -20q-66 0 -99 58q-15 27 -15 63zM-450 1222q0 -58 59 -58q57 0 57 56q0 60 -60 60 q-56 0 -56 -58z" />
<glyph unicode="&#xf70c;" d="M-602 1116q0 168 126 168q72 0 118 -51q32 51 96 51q122 0 121 -125q0 -90 -51 -143q92 20 115 129q12 54 12 143h75q0 -237 -126 -300q-68 -34 -174 -34v42q88 48 88 140q0 76 -72 76q-50 0 -68 -48h-28q-22 50 -88 50q-92 0 -92 -92q0 -38 8 -47q12 65 77 65 q103 0 103 -94q0 -40 -29 -67t-69 -27q-70 0 -118 76q-24 40 -24 88zM-504 1050q0 -46 46 -46q40 0 40 40q0 48 -44 48q-42 0 -42 -42z" />
<glyph unicode="&#xf70d;" d="M-336 1092v72h142v140h71v-140h141v-72h-141v-144h-71v144h-142z" />
<glyph unicode="&#xf70e;" d="M-372 1059q0 177 247 184q143 3 221 67l35 -60q-1 -28 -129 -52q-102 -18 -156 -18q-50 0 -69 -12q102 -14 102 -114q1 -74 -59 -108q-28 -16 -64 -16q-77 0 -112 62q-16 28 -16 67zM-305 1057q-1 -61 65 -61q54 0 54 56q0 62 -66 62q-53 0 -53 -57z" />
<glyph unicode="&#xf70f;" horiz-adv-x="1245" d="M62 674q46 70 146 115q94 41 185 41q195 0 272 -107q35 -50 35 -121v-526h350v743h76v-819h-502v598q0 82 -79 126q-64 36 -154 36q-120 0 -211 -66q81 -22 164 -78q-144 -62 -144 -155v-231q28 26 64 26q58 0 96 -38t38 -95q0 -77 -67 -115q-31 -18 -71 -18 q-78 0 -114 64q-17 30 -17 69v354q1 99 103 135q-52 34 -170 62zM196 119q0 -61 63 -61q69 0 69 67q0 61 -62 61q-70 0 -70 -67z" />
<glyph unicode="&#xf710;" d="M-617 1097q0 55 35.5 92.5t89.5 37.5q50 0 87.5 -35t37.5 -84q0 -54 -37 -86q36 0 123 45q95 49 217 191l58 -50q-196 -254 -424 -254q-116 0 -166 71q-22 31 -21 72zM-552 1102q0 -62 60 -62q58 0 58 58q0 62 -60 61q-58 0 -58 -57z" />
<glyph unicode="&#xf711;" d="M-535 1126q0 65 45 109.5t109 44.5q65 0 109.5 -45t44.5 -109q1 -84 -71 -130q-36 -24 -83 -24q-85 0 -131 72q-24 36 -23 82zM-465 1126q0 -36 24.5 -60t59.5 -24q36 0 60 24.5t24 59.5q0 36 -24.5 60t-59.5 24q-36 0 -60 -24t-24 -60z" />
<glyph unicode="&#xf712;" d="M-740 1120q0 162 187 162q23 0 95 -7q36 -3 66 -3q84 0 136 59l47 -49q-74 -79 -181 -79q-32 -1 -78 5q-84 10 -107 10q-99 0 -99 -98q0 -52 50 -94q16 40 52 96q78 -110 136 -118q-25 27 -25 55q0 40 26.5 67t66.5 27q58 0 85 -49q13 -24 13 -54q0 -106 -138 -106 q-84 0 -153 82q-6 0 -39 -82q-140 54 -140 176zM-410 1057q0 -45 46 -45q40 0 40 42q0 46 -44 46q-42 0 -42 -43z" />
<glyph unicode="&#xf713;" d="M-346 1483v287h76v-287h-76z" />
<glyph unicode="&#xf714;" d="M-635 1724q0 45 31 75q32 30 76 30q64 -1 98 -57q18 -30 18 -72q0 -128 -116 -190q114 0 198 69q80 65 117 176l61 -27q-92 -270 -390 -270q-40 0 -72 6l-4 44q93 46 139 128q-15 -22 -51 -22q-58 0 -90 50q-16 26 -15 60zM-580 1720q0 -54 54 -53q52 -1 51 53 q1 52 -51 52q-54 0 -54 -52z" />
<glyph unicode="&#xf715;" d="M-703 1626q-1 60 29 102q34 48 90 48q60 0 102 -48q30 48 80 48q52 0 83.5 -35t31.5 -87q1 -64 -45 -120q74 22 98 98q16 48 16 148h66q0 -214 -112 -270q-60 -32 -158 -32v38q78 42 78 126q0 70 -64 70q-46 0 -60 -45h-24q-20 47 -83 47q-43 0 -68 -36q-13 -20 -13 -48 q0 -34 8 -41q10 59 72 59q37 0 63.5 -25t26.5 -61q0 -38 -25 -62t-63 -24q-70 0 -110 74q-19 34 -19 76zM-613 1566q0 -42 43 -42q33 0 33 34q0 44 -43 44q-33 0 -33 -36z" />
<glyph unicode="&#xf716;" d="M-488 1626v72h142v141h72v-141h143v-72h-143v-143h-72v143h-142z" />
<glyph unicode="&#xf717;" d="M-498 1422q0 163 222 167q123 1 196 59l31 -54q-74 -64 -254 -64q-41 0 -61 -10q92 -12 92 -103q0 -48 -32 -80.5t-79 -32.5q-68 0 -100 56q-15 26 -15 62zM-438 1422q0 -60 56 -60q52 0 52 49q0 59 -59 59q-49 0 -49 -48z" />
<glyph unicode="&#xf718;" d="M-358 -700q0 52 36 86t88 34q53 0 85.5 -34t32.5 -86v-300h-72v146q0 26 19 56q5 10 9 14q-34 -34 -84 -35q-68 1 -100 57q-14 28 -14 62zM-293 -702q-1 -58 57 -58t58 58t-58 58t-57 -58z" />
<glyph unicode="&#xf719;" d="M-536 -704q0 52 36 87t88 35q53 0 85.5 -34t32.5 -88v-226h106v346h72v-416h-302v70h52v73q0 26 19 56q5 9 9 13q-34 -34 -84 -34q-51 0 -82.5 34t-31.5 84zM-471 -705q-1 -57 57 -57t58 57t-58 57t-57 -57z" />
<glyph unicode="&#xf71a;" d="M-280 -600q0 44 30 74.5t74 30.5q56 -1 88 -49q16 -24 16 -56q0 -44 -30 -74t-74 -30t-74 30t-30 74z" />
<glyph unicode="&#xf71b;" d="M-614 0v1024h614v-1024h-614z" />
<glyph unicode="&#xf71c;" horiz-adv-x="450" />
<glyph unicode="&#xf71d;" horiz-adv-x="450" d="M33 -62q1 38 7 47q8 11 44 11h289q38 0 46 -10q7 -8 7 -48v-82q0 -60 -27 -59q-12 -1 -24 49q-13 62 -67 68q-36 4 -75 4q-101 0 -125 -20q-13 -11 -25.5 -56t-28.5 -45q-22 -1 -21 59v82z" />
</font>
</defs>
</svg>
