<?xml version="1.0" standalone="no"?>
<!DOCTYPE svg PUBLIC "-//W3C//DTD SVG 1.1//EN" "http://www.w3.org/Graphics/SVG/1.1/DTD/svg11.dtd" >
<svg xmlns="http://www.w3.org/2000/svg">
<metadata></metadata>
<defs>
<font id="db_thaitext_xregular" horiz-adv-x="0" >
<font-face units-per-em="2048" ascent="1638" descent="-410" />
<missing-glyph horiz-adv-x="512" />
<glyph unicode="&#x2b;&#x2d;" horiz-adv-x="698" d="M63 0v74h574v-74h-574zM63 422v84h244v244h84v-244h244v-84h-244v-244h-84v244h-244z" />
<glyph unicode="&#x2e;&#x2e;&#x2e;" horiz-adv-x="1193" d="M137 0v125h125v-125h-125zM535 0v125h124v-125h-124zM934 0v125h123v-125h-123z" />
<glyph unicode="&#x3c;&#x3d;" horiz-adv-x="698" d="M53 154v96l586 -248v-96zM53 317v84l586 248v-96l-473 -193l473 -194v-96z" />
<glyph unicode="&#x3e;&#x3d;" horiz-adv-x="698" d="M59 2l584 248v-96l-584 -248v96zM59 70v96l467 194l-467 193v96l584 -248v-84z" />
<glyph unicode="&#xe4f;&#x22;" horiz-adv-x="870" d="M84 340q0 74 27.5 137.5t76 111.5t111.5 75.5t137 27.5t137.5 -27.5t111.5 -75.5t75.5 -111.5t27.5 -137.5t-27.5 -137.5t-75.5 -111.5t-111.5 -75.5t-137.5 -27.5t-137 27.5t-111.5 75.5t-76 111.5t-27.5 137.5zM152 340q0 -59 22.5 -110.5t61 -89.5t90 -60.5 t110.5 -22.5q57 0 109.5 22.5t90.5 60.5t60.5 89.5t22.5 110.5q0 57 -22.5 109.5t-60.5 91.5t-90.5 61.5t-109.5 22.5q-59 0 -110.5 -22.5t-90 -61.5t-61 -91.5t-22.5 -109.5zM248 340q0 39 14 74t40 60.5t60.5 39.5t73.5 14t74 -14t60.5 -39.5t40 -60.5t14.5 -74t-14.5 -74 t-40 -60.5t-60.5 -39.5t-74 -14t-73.5 14t-60.5 39.5t-40 60.5t-14 74zM303 340q0 -53 40 -92t93 -39t92 39t39 92t-39 93t-92 40t-93 -40t-40 -93zM305 918v108h90v-108l-24 -132h-41zM477 918v108h92v-108l-26 -132h-39z" />
<glyph unicode="&#xe0e;&#xe3a;" horiz-adv-x="825" d="M33 194.5q0 47.5 31.5 86t95.5 38.5q14 0 22 -1t19 -7v33q0 72 25.5 100.5t54.5 40.5q-18 14 -41 27q-20 10 -49 19.5t-64 13.5q37 43 84 80q41 31 98.5 56.5t132.5 25.5q57 0 107.5 -14.5t88.5 -42t59.5 -69.5t21.5 -100v-747h-78q-27 35 -58.5 63.5t-60.5 48.5 q-35 23 -69 43q-6 -25 -22.5 -52t-42.5 -50t-59.5 -38t-74.5 -13q-59 4 -98 41t-35 96q2 49 26.5 81t63.5 46t90 10t107 -24q4 12 10 28q4 14 8 30.5t6 39.5l70 -21q-2 -18 -5 -37.5t-8 -35.5q-6 -18 -10 -35q47 -25 92 -56.5t62 -54.5v318v319q0 78 -56.5 118t-134.5 40 q-47 0 -99 -18.5t-93 -53.5l12 -4t33.5 -13t48.5 -23.5t51 -37.5q-33 -8 -55 -26q-23 -16 -39 -43t-16 -72v-155q0 -47 -31 -85t-94 -38t-95 38.5t-32 86zM96 195.5q0 -23.5 16.5 -43t47.5 -19.5t47 19.5t16 43t-16.5 43t-46.5 19.5q-31 0 -47.5 -19.5t-16.5 -43z M193.5 -111.5q-5.5 -23.5 3.5 -44.5q6 -16 19 -24t29.5 -12.5t35 -2.5t30.5 9q18 10 32.5 26.5t25.5 34.5q10 20 18 45q-66 20 -105.5 19.5t-61 -14t-27 -37zM602 -413.5q0 24.5 17.5 46t52.5 21.5q33 0 50 -21.5t17 -46t-17 -46t-50 -21.5q-35 0 -52.5 21.5t-17.5 46z" />
<glyph unicode="&#xe0f;&#xe3a;" horiz-adv-x="825" d="M33 194.5q0 47.5 31.5 86t95.5 38.5q25 0 41 -8v33q0 72 25.5 100.5t54.5 40.5q-18 14 -41 27q-20 10 -49 19.5t-64 13.5q37 43 84 80q41 31 98.5 56.5t132.5 25.5q57 0 107.5 -14.5t88.5 -42t59.5 -69.5t21.5 -100v-747h-82l-96 114l-103 -114q-10 16 -22.5 32.5 t-22.5 30.5q-12 16 -26 31q-14 -27 -37 -49q-18 -18 -46 -33.5t-63 -13.5q-49 0 -83 34.5t-29 98.5q2 43 26.5 67.5t59 33.5t73.5 2t70 -31q8 23 16 45q6 20 12.5 45.5t10.5 52.5l67 -19q-6 -45 -21 -95t-28 -77q10 -8 19 -16q8 -8 16 -17.5t16 -19.5l91 92l96 -98v651 q0 78 -56.5 118t-134.5 40q-47 0 -99 -18.5t-93 -53.5l12 -4t33.5 -13t48.5 -23.5t51 -37.5q-33 -8 -55 -26q-23 -16 -39 -43t-16 -72v-155q0 -47 -31 -85t-94 -38t-95 38.5t-32 86zM96 195.5q0 -23.5 16.5 -43t47.5 -19.5t47 19.5t16 43t-16.5 43t-46.5 19.5 q-31 0 -47.5 -19.5t-16.5 -43zM178 -133q-6 -25 2 -40t21.5 -23.5t31 -8.5t29.5 10t21.5 23.5t15.5 24.5q8 12 14 26q-53 35 -90 26t-45 -38zM602 -413.5q0 24.5 17.5 46t52.5 21.5q33 0 50 -21.5t17 -46t-17 -46t-50 -21.5q-35 0 -52.5 21.5t-17.5 46z" />
<glyph unicode="&#xe0e;&#xe38;" horiz-adv-x="825" d="M33 194.5q0 47.5 31.5 86t95.5 38.5q14 0 22 -1t19 -7v33q0 72 25.5 100.5t54.5 40.5q-18 14 -41 27q-20 10 -49 19.5t-64 13.5q37 43 84 80q41 31 98.5 56.5t132.5 25.5q57 0 107.5 -14.5t88.5 -42t59.5 -69.5t21.5 -100v-747h-78q-27 35 -58.5 63.5t-60.5 48.5 q-35 23 -69 43q-6 -25 -22.5 -52t-42.5 -50t-59.5 -38t-74.5 -13q-59 4 -98 41t-35 96q2 49 26.5 81t63.5 46t90 10t107 -24q4 12 10 28q4 14 8 30.5t6 39.5l70 -21q-2 -18 -5 -37.5t-8 -35.5q-6 -18 -10 -35q47 -25 92 -56.5t62 -54.5v318v319q0 78 -56.5 118t-134.5 40 q-47 0 -99 -18.5t-93 -53.5l12 -4t33.5 -13t48.5 -23.5t51 -37.5q-33 -8 -55 -26q-23 -16 -39 -43t-16 -72v-155q0 -47 -31 -85t-94 -38t-95 38.5t-32 86zM96 195.5q0 -23.5 16.5 -43t47.5 -19.5t47 19.5t16 43t-16.5 43t-46.5 19.5q-31 0 -47.5 -19.5t-16.5 -43z M193.5 -111.5q-5.5 -23.5 3.5 -44.5q6 -16 19 -24t29.5 -12.5t35 -2.5t30.5 9q18 10 32.5 26.5t25.5 34.5q10 20 18 45q-66 20 -105.5 19.5t-61 -14t-27 -37zM469 -472q0 48 30.5 87t94.5 39q53 0 89 -33t36 -92v-301h-86v180q-18 -6 -41 -6q-61 0 -92 39t-31 87z M530 -473.5q0 -24.5 16.5 -44t47.5 -19.5t47 19.5t16 44t-16 44t-47 19.5t-47.5 -19.5t-16.5 -44z" />
<glyph unicode="&#xe0f;&#xe38;" horiz-adv-x="825" d="M33 194.5q0 47.5 31.5 86t95.5 38.5q25 0 41 -8v33q0 72 25.5 100.5t54.5 40.5q-18 14 -41 27q-20 10 -49 19.5t-64 13.5q37 43 84 80q41 31 98.5 56.5t132.5 25.5q57 0 107.5 -14.5t88.5 -42t59.5 -69.5t21.5 -100v-747h-82l-96 114l-103 -114q-10 16 -22.5 32.5 t-22.5 30.5q-12 16 -26 31q-14 -27 -37 -49q-18 -18 -46 -33.5t-63 -13.5q-49 0 -83 34.5t-29 98.5q2 43 26.5 67.5t59 33.5t73.5 2t70 -31q8 23 16 45q6 20 12.5 45.5t10.5 52.5l67 -19q-6 -45 -21 -95t-28 -77q10 -8 19 -16q8 -8 16 -17.5t16 -19.5l91 92l96 -98v651 q0 78 -56.5 118t-134.5 40q-47 0 -99 -18.5t-93 -53.5l12 -4t33.5 -13t48.5 -23.5t51 -37.5q-33 -8 -55 -26q-23 -16 -39 -43t-16 -72v-155q0 -47 -31 -85t-94 -38t-95 38.5t-32 86zM96 195.5q0 -23.5 16.5 -43t47.5 -19.5t47 19.5t16 43t-16.5 43t-46.5 19.5 q-31 0 -47.5 -19.5t-16.5 -43zM178 -133q-6 -25 2 -40t21.5 -23.5t31 -8.5t29.5 10t21.5 23.5t15.5 24.5q8 12 14 26q-53 35 -90 26t-45 -38zM469 -472q0 48 30.5 87t94.5 39q53 0 89 -33t36 -92v-301h-86v180q-18 -6 -41 -6q-61 0 -92 39t-31 87zM530 -473.5 q0 -24.5 16.5 -44t47.5 -19.5t47 19.5t16 44t-16 44t-47 19.5t-47.5 -19.5t-16.5 -44z" />
<glyph unicode="&#xe0e;&#xe39;" horiz-adv-x="825" d="M33 194.5q0 47.5 31.5 86t95.5 38.5q14 0 22 -1t19 -7v33q0 72 25.5 100.5t54.5 40.5q-18 14 -41 27q-20 10 -49 19.5t-64 13.5q37 43 84 80q41 31 98.5 56.5t132.5 25.5q57 0 107.5 -14.5t88.5 -42t59.5 -69.5t21.5 -100v-747h-78q-27 35 -58.5 63.5t-60.5 48.5 q-35 23 -69 43q-6 -25 -22.5 -52t-42.5 -50t-59.5 -38t-74.5 -13q-59 4 -98 41t-35 96q2 49 26.5 81t63.5 46t90 10t107 -24q4 12 10 28q4 14 8 30.5t6 39.5l70 -21q-2 -18 -5 -37.5t-8 -35.5q-6 -18 -10 -35q47 -25 92 -56.5t62 -54.5v318v319q0 78 -56.5 118t-134.5 40 q-47 0 -99 -18.5t-93 -53.5l12 -4t33.5 -13t48.5 -23.5t51 -37.5q-33 -8 -55 -26q-23 -16 -39 -43t-16 -72v-155q0 -47 -31 -85t-94 -38t-95 38.5t-32 86zM96 195.5q0 -23.5 16.5 -43t47.5 -19.5t47 19.5t16 43t-16.5 43t-46.5 19.5q-31 0 -47.5 -19.5t-16.5 -43z M193.5 -111.5q-5.5 -23.5 3.5 -44.5q6 -16 19 -24t29.5 -12.5t35 -2.5t30.5 9q18 10 32.5 26.5t25.5 34.5q10 20 18 45q-66 20 -105.5 19.5t-61 -14t-27 -37zM297 -463q0 45 29.5 82t89.5 37q51 0 86 -29.5t35 -87.5v-94q0 -35 -1 -64.5t1 -29.5q0 -23 14 -36t37 -13 q18 0 32.5 13t14.5 36v297h82v-297q0 -55 -40 -85t-91 -30q-49 0 -90 29.5t-41 85.5v71q-10 -2 -14.5 -3t-26.5 -1q-57 0 -87 37t-30 82zM356 -463.5q0 -23.5 14.5 -42t45.5 -18.5t46 18.5t15 42t-15.5 42t-45.5 18.5q-31 0 -45.5 -18.5t-14.5 -42z" />
<glyph unicode="&#xe0f;&#xe39;" horiz-adv-x="825" d="M33 194.5q0 47.5 31.5 86t95.5 38.5q25 0 41 -8v33q0 72 25.5 100.5t54.5 40.5q-18 14 -41 27q-20 10 -49 19.5t-64 13.5q37 43 84 80q41 31 98.5 56.5t132.5 25.5q57 0 107.5 -14.5t88.5 -42t59.5 -69.5t21.5 -100v-747h-82l-96 114l-103 -114q-10 16 -22.5 32.5 t-22.5 30.5q-12 16 -26 31q-14 -27 -37 -49q-18 -18 -46 -33.5t-63 -13.5q-49 0 -83 34.5t-29 98.5q2 43 26.5 67.5t59 33.5t73.5 2t70 -31q8 23 16 45q6 20 12.5 45.5t10.5 52.5l67 -19q-6 -45 -21 -95t-28 -77q10 -8 19 -16q8 -8 16 -17.5t16 -19.5l91 92l96 -98v651 q0 78 -56.5 118t-134.5 40q-47 0 -99 -18.5t-93 -53.5l12 -4t33.5 -13t48.5 -23.5t51 -37.5q-33 -8 -55 -26q-23 -16 -39 -43t-16 -72v-155q0 -47 -31 -85t-94 -38t-95 38.5t-32 86zM96 195.5q0 -23.5 16.5 -43t47.5 -19.5t47 19.5t16 43t-16.5 43t-46.5 19.5 q-31 0 -47.5 -19.5t-16.5 -43zM178 -133q-6 -25 2 -40t21.5 -23.5t31 -8.5t29.5 10t21.5 23.5t15.5 24.5q8 12 14 26q-53 35 -90 26t-45 -38zM297 -463q0 45 29.5 82t89.5 37q51 0 86 -29.5t35 -87.5v-94q0 -35 -1 -64.5t1 -29.5q0 -23 14 -36t37 -13q18 0 32.5 13t14.5 36 v297h82v-297q0 -55 -40 -85t-91 -30q-49 0 -90 29.5t-41 85.5v71q-10 -2 -14.5 -3t-26.5 -1q-57 0 -87 37t-30 82zM356 -463.5q0 -23.5 14.5 -42t45.5 -18.5t46 18.5t15 42t-15.5 42t-45.5 18.5q-31 0 -45.5 -18.5t-14.5 -42z" />
<glyph unicode="&#xd;" horiz-adv-x="579" />
<glyph unicode=" "  horiz-adv-x="512" />
<glyph unicode="&#x09;" horiz-adv-x="512" />
<glyph unicode="&#xa0;" horiz-adv-x="512" />
<glyph unicode="!" horiz-adv-x="331" d="M150 0v125h100v-125h-100zM150 442v428h100v-428l-27 -241h-49z" />
<glyph unicode="&#x22;" horiz-adv-x="423" d="M63 715v135h111v-135l-31 -162h-49zM252 715v135h113v-135l-33 -162h-47z" />
<glyph unicode="#" horiz-adv-x="663" d="M14 227v97h138l32 182h-125v96h142l43 232h92l-43 -232l153 -2l41 234h95l-41 -232h108v-96h-127l-33 -182h121v-97h-139l-45 -252h-92l45 252h-152l-47 -252h-90l45 252h-121zM246 324h151l31 182h-149z" />
<glyph unicode="$" horiz-adv-x="663" d="M39 250h92q4 -31 8 -60.5t19.5 -55t46.5 -46t86 -31.5v324q-18 6 -44 14t-52.5 18.5t-51 25t-39.5 32.5q-29 31 -39 80t-6 90q14 111 80 158t152 57v64h71v-64q59 -4 97.5 -20.5t77.5 -51.5q16 -14 27 -37.5t18.5 -48t9.5 -46t2 -31.5h-96q-2 35 -9.5 59.5t-25.5 42.5 q-18 27 -46 39t-55 8v-293q55 -16 110.5 -35.5t94.5 -60.5q25 -25 39 -63t12 -93q0 -49 -17 -91t-45 -73.5t-60.5 -51t-65.5 -23.5l-68 -11v-125h-71v121q-27 6 -70 14.5t-83 36t-69.5 81t-29.5 147.5zM150 643q-10 -55 29.5 -99t111.5 -57v283q-53 0 -95 -37t-46 -90z M362 57q12 2 38 9.5t52.5 23.5t46 48t19.5 85q0 39 -14.5 63.5t-38 40t-51 24.5t-52.5 18v-312z" />
<glyph unicode="%" horiz-adv-x="1062" d="M35 614q0 86 59.5 145.5t145.5 59.5t145 -59.5t59 -145.5t-59 -145t-145 -59t-145.5 59t-59.5 145zM119 614q0 -51 34.5 -85.5t86.5 -34.5q49 0 84.5 34.5t35.5 85.5t-35.5 86t-84.5 35q-51 0 -86 -34.5t-35 -86.5zM252 -25l471 871h88l-471 -871h-88zM618 180 q0 43 16.5 80t44.5 64.5t64.5 44t77.5 16.5q86 0 145.5 -59.5t59.5 -145.5t-59.5 -145.5t-145.5 -59.5q-41 0 -77.5 16.5t-64.5 44t-44.5 64.5t-16.5 80zM700 180q0 -49 36 -85t85 -36q51 0 86 36t35 85q0 51 -35 86t-86 35q-49 0 -85 -35t-36 -86z" />
<glyph unicode="&#x26;" horiz-adv-x="796" d="M63 195q-4 86 30 139t95 94l64 41l-41 57q-59 84 -48 162t83 125q25 14 56.5 24.5t65 10.5t68.5 -12.5t64 -38.5q37 -35 50 -73t11 -75q-2 -49 -31.5 -90t-70.5 -67l-64 -41l156 -193q14 29 26.5 64.5t12.5 74.5h94q2 -25 -3 -52.5t-15.5 -56t-23.5 -56t-28 -50.5 l148 -182h-133l-74 88q-16 -12 -47 -41t-72 -49q-6 -4 -32.5 -12.5t-64.5 -12.5t-81 1.5t-82 29.5q-57 35 -82.5 80t-30.5 111zM164 197q2 -16 12 -38t28.5 -42.5t46.5 -34.5t68 -14q18 0 37 3t40.5 12t46 28.5t59.5 50.5l-193 239q-16 -10 -42.5 -27.5t-52.5 -42t-41 -58 t-9 -76.5zM262 686q-4 -31 1 -52.5t16.5 -40t28 -34.5t32.5 -35q14 6 40 20.5t47.5 37t30.5 55.5t-9 76q-12 27 -40 40t-59 11t-56.5 -21.5t-31.5 -56.5z" />
<glyph unicode="'" horiz-adv-x="229" d="M57 715v133h113v-133l-33 -162h-47z" />
<glyph unicode="(" horiz-adv-x="397" d="M86 309q0 74 14.5 151t41 150.5t61.5 140t76 119.5h71q-47 -78 -77.5 -155.5t-49 -150t-27 -138.5t-8.5 -117q0 -106 34 -255.5t128 -307.5h-71q-41 53 -76 119.5t-61.5 140.5t-41 152t-14.5 151z" />
<glyph unicode=")" horiz-adv-x="397" d="M43 -254q47 78 79 156t50 150.5t25.5 138t7.5 118.5q0 51 -7.5 117t-25.5 138.5t-50 150.5t-79 155h72q41 -53 75.5 -119.5t61.5 -140t41 -150.5t14 -151t-14 -151.5t-41 -151.5t-61.5 -140.5t-75.5 -119.5h-72z" />
<glyph unicode="*" horiz-adv-x="464" d="M49 727l23 72l125 -47l-4 137h73l-6 -137l125 45l25 -76l-129 -31l79 -106l-57 -43l-74 112l-77 -110l-58 43l82 104z" />
<glyph unicode="+" horiz-adv-x="698" d="M63 244v84h244v243h84v-243h244v-84h-244v-244h-84v244h-244z" />
<glyph unicode="," horiz-adv-x="331" d="M104 -125q35 18 53.5 54t20.5 71h-72v125h123v-125q-4 -41 -17 -72.5t-31.5 -55.5t-38 -37t-38.5 -15v55z" />
<glyph unicode="-" horiz-adv-x="499" d="M53 242v88h391v-88h-391z" />
<glyph unicode="." horiz-adv-x="331" d="M104 0v125h125v-125h-125z" />
<glyph unicode="/" horiz-adv-x="331" d="M-10 -25l284 873h68l-283 -873h-69z" />
<glyph unicode="0" horiz-adv-x="663" d="M51 410q0 37 3 78.5t11.5 83.5t19.5 81t30 70q37 61 94 93t119.5 33t121 -31t95.5 -95q18 -31 29.5 -70t18.5 -81t10 -83.5t3 -78.5q0 -35 -3 -77t-10 -85t-18.5 -82t-29.5 -70q-37 -63 -95.5 -95t-121 -31t-119.5 33t-94 93q-18 31 -29.5 70t-20 82t-11.5 85t-3 77z M154 410q0 -39 4 -78t10 -73t13 -60.5t14 -38.5q23 -43 58.5 -64.5t75.5 -21.5t75.5 21.5t58.5 64.5q6 12 13 38.5t13.5 60.5t10.5 73t4 78q0 80 -12.5 151.5t-28.5 100.5q-25 45 -61.5 65.5t-75.5 20.5t-75 -23t-56 -63q-14 -29 -27.5 -101t-13.5 -151z" />
<glyph unicode="1" horiz-adv-x="663" d="M133 598v80q68 10 104.5 20.5t59.5 30.5q20 16 31.5 44t25.5 75h72v-848h-100v598h-193z" />
<glyph unicode="2" horiz-adv-x="663" d="M41 0q4 59 13 107.5t33 90.5t66 80.5t109 79.5q33 20 75 40t79 46.5t62.5 62.5t25.5 89t-21.5 85t-51.5 47t-57.5 19.5t-39.5 4.5q-98 -4 -133 -58.5t-39 -140.5h-103q2 45 12.5 97t41 96.5t88 73t153.5 28.5q61 0 109.5 -22.5t80 -57.5t49 -81t17.5 -91 q0 -66 -29.5 -116t-75.5 -88t-100.5 -66.5t-101.5 -51.5q-6 -4 -30.5 -19t-50 -38.5t-47 -53.5t-21.5 -63h450v-100h-563z" />
<glyph unicode="3" horiz-adv-x="663" d="M39 246h100q2 -31 8.5 -62.5t24.5 -58.5t52 -43t87 -14q94 4 140.5 49t46.5 108q0 53 -13.5 85t-41 49.5t-72.5 22.5t-107 5v90q49 0 87 4t64.5 18.5t40 43t13.5 78.5q0 39 -14.5 64.5t-37 40.5t-48 20.5t-45.5 5.5q-86 0 -126 -44t-40 -135h-101q2 129 65.5 202 t192.5 73q53 0 101.5 -14.5t84.5 -43t57.5 -74.5t21.5 -110q0 -72 -36 -109.5t-67 -58.5q78 -35 102.5 -88t24.5 -121q0 -59 -22.5 -106t-61.5 -81t-91 -52.5t-112 -18.5q-84 0 -137 27t-83.5 66.5t-43 88t-14.5 93.5z" />
<glyph unicode="4" horiz-adv-x="663" d="M35 199v112l385 537h78v-549h127v-100h-127v-199h-101v199h-362zM129 299h268v379h-2z" />
<glyph unicode="5" horiz-adv-x="663" d="M43 209h107q4 -12 11 -34.5t24.5 -45.5t49 -39t84.5 -16q84 2 131.5 46t47.5 148q0 92 -49.5 141.5t-114.5 51.5q-59 2 -97 -18.5t-73 -57.5h-96l67 463h436v-100h-354l-33 -238l2 -2q37 35 75 43t73 8q37 0 85 -11t91 -43t72.5 -89.5t29.5 -149.5q0 -53 -20.5 -105 t-57 -94t-90 -69t-116.5 -27q-84 0 -138.5 28t-87 65.5t-46 77.5t-13.5 67z" />
<glyph unicode="6" horiz-adv-x="663" d="M51 381q0 68 9.5 148.5t41 149.5t91 117t159.5 52q18 0 55 -6t76 -30t71 -68t42 -117h-104q4 47 -37 86t-103 39q-63 0 -103 -36t-61.5 -87t-29.5 -106.5t-8 -94.5q25 20 44 38.5t41.5 33t49 21.5t67.5 7q51 0 98.5 -18t83 -53t57 -85.5t21.5 -113.5q0 -41 -13 -91 t-46 -93t-86 -73t-133 -30q-92 0 -147.5 41t-86 102.5t-40 133t-9.5 133.5zM164 254q0 -47 15.5 -82t40 -57.5t55 -34.5t61.5 -12q78 0 125 46t47 144q0 55 -14.5 89t-37 52.5t-51 24.5t-55.5 8q-29 2 -61.5 -6t-60 -28.5t-46 -56.5t-18.5 -87z" />
<glyph unicode="7" horiz-adv-x="663" d="M57 748v100h564v-90q-78 -98 -127.5 -189.5t-83.5 -150.5q-41 -72 -77 -183.5t-57 -234.5h-112q18 78 34.5 135.5t35 106.5t41 96t53.5 104q43 78 90 153t92 153h-453z" />
<glyph unicode="8" horiz-adv-x="663" d="M45 214q-2 44 9.5 83t31.5 65q12 25 36.5 43.5t59.5 38.5q-35 23 -56.5 42.5t-31.5 45.5q-12 27 -16 62t3 71.5t26.5 70.5t56.5 61q63 45 156.5 50t183.5 -50q35 -27 54.5 -66t24.5 -79t-3.5 -76.5t-28.5 -59.5q-12 -14 -31.5 -33.5t-42.5 -36.5q25 -6 47.5 -27t38.5 -44 q25 -27 39 -70t11 -91t-27.5 -97t-77.5 -88q-41 -29 -92 -44.5t-103.5 -13.5t-101.5 19.5t-88 54.5t-57.5 81t-20.5 88zM154 225q2 -59 44 -108t132 -49q74 0 124 49t50 112q0 57 -20.5 90t-49 50.5t-58.5 22.5t-46 5q-92 0 -136 -50t-40 -122zM181 640q-1 -44 9 -73 q14 -41 50 -59.5t76 -20.5t78.5 12.5t56.5 39.5t23 51t1 52t-16.5 47.5t-28.5 35.5q-14 12 -41 19.5t-56.5 7.5t-59 -7.5t-50.5 -25.5q-41 -35 -42 -79z" />
<glyph unicode="9" horiz-adv-x="663" d="M45 561q0 41 13.5 91t46 93t87 73t134.5 30q92 0 147 -41t85 -101.5t39 -132.5t9 -133q0 -70 -10 -151.5t-43 -152t-96.5 -118t-167.5 -47.5q-16 0 -51 9.5t-71 34t-66.5 68.5t-37.5 112h103q-2 -47 38 -87t101 -40q63 0 103.5 35.5t63 87t30.5 106.5t8 94 q-25 -20 -44.5 -38.5t-39.5 -32t-46 -20.5t-63 -7q-55 0 -105 17.5t-87 51t-58.5 84t-21.5 115.5zM152 563q0 -59 16 -94t40.5 -53.5t54.5 -23.5t59 -5q27 0 57.5 9.5t56 31t43 56t17.5 83.5q0 45 -15.5 80t-40 57.5t-55.5 35t-61 12.5q-78 0 -125 -46.5t-47 -142.5z" />
<glyph unicode=":" horiz-adv-x="331" d="M131 0v125h125v-125h-125zM131 504v123h125v-123h-125z" />
<glyph unicode=";" horiz-adv-x="331" d="M129 -125q35 18 53.5 54t20.5 71h-72v125h125v-125q-10 -82 -50 -128t-77 -52v55zM131 504v123h125v-123h-125z" />
<glyph unicode="&#x3c;" horiz-adv-x="698" d="M53 236v83l586 248v-96l-473 -192l473 -195v-96z" />
<glyph unicode="=" horiz-adv-x="698" d="M61 135v82h576v-82h-576zM61 338v82h576v-82h-576z" />
<glyph unicode="&#x3e;" horiz-adv-x="698" d="M59 -12v96l467 195l-467 192v96l584 -248v-83z" />
<glyph unicode="?" horiz-adv-x="663" d="M92 602q0 57 14.5 111.5t49 94.5t95 60.5t152.5 10.5q84 -10 128 -49t61.5 -88.5t14.5 -96.5t-11 -72q-12 -35 -49 -76.5t-84 -84.5q-14 -12 -40 -41t-26 -82v-56h-110v72q0 31 12 58.5t28.5 50t35 39t28.5 26.5q23 23 49.5 47.5t36.5 48.5q20 45 20.5 84t-17 68 t-50.5 46.5t-76 17.5q-63 0 -96 -25t-47 -56.5t-15 -62.5t-1 -45h-103zM287 0v125h110v-125h-110z" />
<glyph unicode="@" horiz-adv-x="1212" d="M48 206.5q-28 100.5 9 227.5q18 68 60.5 146.5t114 145.5t176 111t249.5 42q39 0 88.5 -11.5t100.5 -32t99 -52t85 -72.5q102 -115 105 -237.5t-56 -233.5q-6 -12 -19 -34t-36 -46.5t-53.5 -47t-69.5 -34.5q-41 -12 -83 -13.5t-64 7.5q-39 10 -55.5 35.5t-20.5 46.5 q-12 -16 -37 -36t-57.5 -33t-69.5 -16t-76 13q-31 12 -51 29.5t-32.5 35t-18.5 33t-8 23.5q-20 61 -13 116.5t29.5 103.5t54 85t60.5 59q14 12 37.5 24.5t52.5 21t58.5 10.5t58.5 -7q39 -12 66.5 -42.5t35.5 -57.5l27 80h98l-115 -358q-6 -20 -6 -36t10 -32q18 -29 62 -20 q53 12 93 45.5t56 62.5q37 68 45.5 126t-4 109.5t-38 91.5t-52.5 70q-31 33 -100.5 74t-157.5 55q-80 12 -148.5 -1t-124 -41.5t-99.5 -69.5t-75.5 -83t-51 -81t-27.5 -66q-18 -57 -18.5 -126.5t27.5 -138t89 -131t166 -105.5q55 -23 110.5 -28t105.5 1t96 18.5t83 24.5 l35 -80q-109 -41 -226.5 -50t-234.5 28q-55 18 -127.5 63t-131 116.5t-86.5 172zM423 291q-5 -47 32 -98q27 -35 56.5 -43.5t58 1t52 30t40.5 44.5q12 20 24 49t21.5 60t14.5 61.5t3 55.5q-2 27 -19.5 48t-44 32.5t-59.5 8.5t-67 -28q-35 -25 -57.5 -55.5t-39.5 -81.5 q-10 -37 -15 -84z" />
<glyph unicode="A" horiz-adv-x="792" d="M16 0l316 870h141l303 -870h-117l-92 268h-342l-98 -268h-111zM256 354h276l-126 412z" />
<glyph unicode="B" horiz-adv-x="788" d="M86 0v870h381q27 0 66.5 -11t76.5 -36.5t62.5 -68.5t25.5 -107q0 -61 -28.5 -111.5t-81.5 -74.5q8 -4 32.5 -15.5t50 -34t45 -61.5t19.5 -100q0 -68 -25.5 -116t-61.5 -77.5t-72.5 -43t-59.5 -13.5h-430zM190 92h297q41 2 69 17.5t45 40t25.5 52t8.5 54.5 q0 45 -16.5 73.5t-43 45t-61.5 24t-72 7.5h-252v-314zM190 489h250q47 2 77 15.5t47.5 33t23.5 43t6 46.5q0 18 -6 43.5t-25.5 49t-56.5 41t-98 19.5h-218v-291z" />
<glyph unicode="C" horiz-adv-x="856" d="M51 430q0 59 16.5 137t59.5 148.5t116.5 120t188.5 49.5q137 0 226.5 -75t127.5 -208h-108q-29 86 -88.5 138.5t-151.5 52.5q-66 0 -118 -28t-87.5 -76t-55 -114.5t-19.5 -144.5q0 -162 74.5 -263t205.5 -101q98 0 161 62t97 191h107q-14 -74 -46 -138t-80 -111 q-47 -47 -109 -74q-57 -25 -126 -25h-10q-106 2 -179 46t-118 112t-64.5 147.5t-19.5 153.5z" />
<glyph unicode="D" horiz-adv-x="854" d="M98 0v870h336q139 0 236.5 -92t113.5 -262q3 -40 3 -78q0 -72 -12 -137q-19 -98 -79 -170q-57 -72 -112.5 -101.5t-87.5 -29.5h-398zM203 92h252q25 0 46 3t48 16q51 25 91 107.5t44 213.5v17q0 59 -12 113q-14 62 -44 111.5t-80 78t-124 28.5h-221v-688z" />
<glyph unicode="E" horiz-adv-x="788" d="M100 0v870h605v-90h-502v-286h477v-93h-477v-309h522v-92h-625z" />
<glyph unicode="F" horiz-adv-x="720" d="M100 0v870h584v-90h-481v-286h418v-93h-418v-401h-103z" />
<glyph unicode="G" horiz-adv-x="921" d="M45 426q0 63 18.5 142t66.5 148.5t129 117t206 51.5h11q91 0 156 -30q68 -32 111 -77t63.5 -93t20.5 -77h-100q-2 29 -20.5 61.5t-51 60.5t-81 45.5t-109.5 17.5q-72 0 -130.5 -27t-100 -76t-64.5 -116q-20 -60 -20 -130v-18q2 -86 27.5 -157.5t72.5 -118.5 q41 -47 97 -68t118 -21q90 0 146.5 35t87 84t39.5 102q7 34 7 61q0 14 -2 26h-270v94h367v-469h-72l-27 108q-25 -23 -52 -45t-63 -41.5t-82 -32t-110 -12.5q-31 0 -66.5 8.5t-67.5 20.5t-59.5 27.5t-41.5 29.5q-43 37 -72 81t-47.5 93.5t-26.5 98.5t-8 96z" />
<glyph unicode="H" horiz-adv-x="854" d="M92 0v870h103v-376h462v376h105v-870h-105v401h-462v-401h-103z" />
<glyph unicode="I" horiz-adv-x="323" d="M117 0v870h104v-870h-104z" />
<glyph unicode="J" horiz-adv-x="598" d="M16 186v93h105v-91q0 -59 41 -93t90 -34q47 0 76.5 18.5t46 47.5t21.5 63.5t5 65.5v614h105v-688q-10 -59 -35 -100t-59.5 -66.5t-75.5 -36t-80 -10.5q-76 2 -123 28t-72.5 59.5t-35 70.5t-9.5 59z" />
<glyph unicode="K" horiz-adv-x="788" d="M86 0v870h104v-444l447 444h135l-354 -354l356 -516h-121l-311 449l-152 -150v-299h-104z" />
<glyph unicode="L" horiz-adv-x="655" d="M88 0v870h105v-776h434v-94h-539z" />
<glyph unicode="M" horiz-adv-x="987" d="M82 0v870h151l259 -749l258 749h151v-870h-104v731l-252 -731h-107l-252 731v-731h-104z" />
<glyph unicode="N" horiz-adv-x="854" d="M84 0v870h123l455 -729v729h102v-870h-121l-459 723v-723h-100z" />
<glyph unicode="O" horiz-adv-x="921" d="M37 430q0 70 20.5 149.5t69.5 147.5t130 113t202 45q125 0 205.5 -48.5t129 -118t67 -148.5t18.5 -140q0 -109 -35 -194.5t-92.5 -146t-133.5 -91.5q-68 -27 -140 -27h-19q-129 6 -211 54.5t-129 117t-64.5 145.5t-17.5 142zM141 430q0 -80 21.5 -147.5t62.5 -116.5 t100.5 -76t133.5 -27q147 0 230 101.5t85 265.5q0 76 -20.5 142.5t-60.5 115.5t-99 78t-135 29q-74 0 -132.5 -27t-100.5 -75t-63.5 -115.5t-21.5 -147.5z" />
<glyph unicode="P" horiz-adv-x="788" d="M100 0v870h365q33 0 77 -7t84 -31.5t69.5 -72.5t33.5 -130v-12q-1 -64 -21 -109q-22 -49 -58 -80t-75.5 -45t-72.5 -14h-295v-369h-107zM207 461h291q8 0 30.5 8t45 27.5t38.5 51.5q13 26 14 63q0 9 -1 18q-4 47 -21.5 76.5t-42 46t-51.5 22.5t-45 6h-258v-319z" />
<glyph unicode="Q" horiz-adv-x="921" d="M37 430q0 70 20.5 149.5t69.5 147.5t130 113t202 45q125 0 207 -48.5t129 -118t65.5 -148.5t18.5 -140q0 -86 -28 -176t-95 -162l112 -92l-57 -72l-125 105q-43 -23 -102 -43q-55 -19 -113 -19h-12q-129 4 -211 52.5t-129 117t-64.5 146.5t-17.5 143zM145 430 q0 -80 21.5 -146.5t62.5 -115.5t98.5 -75.5t131.5 -26.5q33 0 67.5 6t77.5 28l-94 78l55 68l111 -90q43 45 69.5 119.5t26.5 154.5q0 74 -19.5 140.5t-59.5 115.5t-98 78t-134 29q-74 0 -132.5 -27t-99.5 -75t-62.5 -114.5t-21.5 -146.5z" />
<glyph unicode="R" horiz-adv-x="854" d="M102 0v870h392q51 0 101 -8t89 -33.5t62.5 -73.5t23.5 -130q0 -72 -27.5 -111t-87.5 -84q33 -20 52.5 -36.5t30 -38t14.5 -53.5t4 -83q2 -78 9 -123t38 -67v-29h-127q-12 35 -19.5 73t-7.5 72q0 39 1 81v6q0 38 -11 71q-12 35 -43 57.5t-94 22.5h-295v-383h-105zM207 465 h289q31 0 60.5 5t53 22.5t39 48.5t17.5 82v11q0 44 -14 72q-16 30 -42 47t-57 22t-57 5h-289v-315z" />
<glyph unicode="S" horiz-adv-x="788" d="M57 276h97q0 -23 6.5 -60.5t35.5 -71.5q30 -34 86 -56q42 -17 105 -16q23 0 49 2q53 4 99.5 31.5t68.5 65.5q16 28 17 58q-1 12 -3 24q-8 44 -63 81q-47 20 -84 31.5t-77 21.5t-87 22.5t-112 34.5q-14 4 -33 14.5t-35 29t-29.5 47t-17.5 69.5q-2 15 -2 29q0 37 11 73 q15 52 52 91t94.5 63.5t137.5 24.5q174 0 255 -77q77 -73 77 -181v-11h-101v10q0 70 -51 120q-55 54 -178 53q-80 0 -127 -32q-48 -32 -64 -74q-9 -23 -9 -47q1 -19 7 -38q14 -43 51 -65q27 -16 67 -27.5t86 -24t96 -24.5t100 -29q55 -18 97 -70.5t46 -113.5v-9 q-1 -59 -25 -107q-26 -52 -72 -88t-108 -54q-53 -16 -110 -16h-19q-84 2 -149.5 21t-120.5 85q-43 53 -52.5 96t-11.5 94z" />
<glyph unicode="T" horiz-adv-x="722" d="M20 780v90h680v-90h-286v-780h-105v780h-289z" />
<glyph unicode="U" horiz-adv-x="854" d="M94 250v620h105v-620q0 -29 11 -61.5t36.5 -61.5t69.5 -48.5t112 -19.5t112 19.5t69.5 48.5t36.5 61.5t11 61.5v620h105v-618q0 -39 -15.5 -88t-54.5 -92t-102.5 -72t-161.5 -29t-161.5 29t-102.5 72t-54.5 91t-15.5 87z" />
<glyph unicode="V" horiz-adv-x="788" d="M29 870h112l260 -759l248 759h113l-305 -870h-121z" />
<glyph unicode="W" horiz-adv-x="1124" d="M23 870h116l162 -700l10 -2l199 700h104l197 -700l10 2l168 700h117l-223 -870h-123l-199 711l-196 -711h-123z" />
<glyph unicode="X" horiz-adv-x="788" d="M23 0l305 446l-283 424h127l227 -340l226 340h127l-291 -424l303 -446h-131l-236 362l-245 -362h-129z" />
<glyph unicode="Y" horiz-adv-x="792" d="M23 870h127l251 -421l248 421h127l-325 -526v-344h-101v344z" />
<glyph unicode="Z" horiz-adv-x="722" d="M29 0v90l528 688h-496v92h629v-94l-530 -682h530v-94h-661z" />
<glyph unicode="[" horiz-adv-x="331" d="M78 -254v1122h221v-88h-121v-944h121v-90h-221z" />
<glyph unicode="\" horiz-adv-x="331" d="M-12 870h71l283 -895h-70z" />
<glyph unicode="]" horiz-adv-x="331" d="M29 -166h121v946h-121v88h221v-1124h-221v90z" />
<glyph unicode="^" horiz-adv-x="561" d="M53 397l185 455h86l184 -455h-84l-143 355l-146 -355h-82z" />
<glyph unicode="_" horiz-adv-x="663" d="M0 -152h664v-73h-664v73z" />
<glyph unicode="`" horiz-adv-x="397" d="M27 885h137l115 -176h-76z" />
<glyph unicode="a" horiz-adv-x="655" d="M45 168q0 80 54.5 129t164.5 63l96 13q20 4 47 8t44 12q16 6 18 22.5t2 30.5q0 49 -31.5 80t-109.5 31q-68 0 -113 -26.5t-55 -108.5h-88q8 119 80.5 170t175.5 51q49 0 91 -10t73.5 -34t50 -61.5t18.5 -93.5v-329q0 -33 13.5 -40t60.5 9l-2 -80l-31.5 -9t-34.5 -5 q-10 0 -17 2t-15 4q-33 4 -46.5 24.5t-15.5 49.5q-92 -86 -219 -86q-43 0 -81 11t-66.5 34.5t-46 57.5t-17.5 81zM141 166q0 -51 37 -74.5t82 -23.5q39 0 77 9t67.5 29.5t48 52t18.5 74.5v78q-43 -12 -85 -17t-87 -9q-72 -6 -115 -34t-43 -85z" />
<glyph unicode="b" horiz-adv-x="655" d="M57 0v870h93v-317q37 43 87 67.5t109 24.5q72 0 123 -27.5t85 -73.5t49 -105.5t15 -125.5q0 -70 -14 -131t-47 -106t-86 -70.5t-129 -25.5q-53 0 -108.5 27.5t-83.5 72.5v-80h-93zM150 315q0 -104 45 -178t141 -74q84 0 134 61.5t52 170.5v18q0 45 -8 85q-10 48 -32.5 84 t-58.5 57.5t-87 21.5q-47 0 -82 -20.5t-57.5 -54t-34.5 -77.5t-12 -94z" />
<glyph unicode="c" horiz-adv-x="612" d="M31 313q0 66 18.5 125.5t54 105.5t89 72.5t122.5 26.5q109 0 175.5 -53t84.5 -170h-90q-18 68 -60 104.5t-110 36.5q-53 0 -89 -21.5t-58.5 -57.5t-32.5 -80t-10 -89q0 -47 10 -91t32.5 -78.5t58.5 -56t89 -21.5q74 0 117 43t57 118h95q-20 -113 -85 -178t-184 -65 q-76 0 -129 25.5t-88 69.5t-51 104.5t-16 129.5z" />
<glyph unicode="d" horiz-adv-x="655" d="M23 313q0 66 15 125.5t49 105.5t85 73.5t123 27.5q59 0 109.5 -24.5t87.5 -67.5v317h92v-870h-92v80q-29 -47 -84.5 -73.5t-108.5 -26.5q-76 0 -129 25.5t-86 70.5t-47 106.5t-14 130.5zM117 295q2 -111 52 -172.5t136 -61.5q96 0 142.5 74t46.5 180q0 49 -12.5 94.5 t-36 79t-58.5 54t-82 20.5q-53 0 -89 -21.5t-58 -57.5q-23 -34 -33 -84q-8 -41 -8 -87v-18z" />
<glyph unicode="e" horiz-adv-x="655" d="M41 311q0 68 18.5 129.5t55.5 107.5t91 72.5t126 26.5q74 0 128 -26.5t91 -72.5t54.5 -107.5t17.5 -129.5q0 -6 -1 -13t-1 -13h-486q6 -98 55.5 -157.5t141.5 -59.5q74 0 118 37.5t62 97.5h98q-29 -102 -101.5 -161.5t-176.5 -59.5q-59 0 -112.5 21.5t-93.5 62t-62.5 102 t-22.5 143.5zM141 367h383q-12 82 -56 137t-136 55q-88 0 -133 -57.5t-58 -134.5z" />
<glyph unicode="f" horiz-adv-x="327" d="M18 545v82h84v88q0 74 31 116.5t105 42.5q14 0 30.5 -1t38.5 -3v-88q-20 8 -31.5 9.5t-21.5 1.5q-23 0 -35 -9.5t-17 -22.5t-6 -31.5t-1 -37.5v-65h112v-82h-112v-545h-93v545h-84z" />
<glyph unicode="g" horiz-adv-x="655" d="M20 313q0 68 15.5 125.5t47.5 100.5t83 67.5t125 24.5q51 0 105.5 -25.5t88.5 -68.5v90h93v-549q0 -61 -11.5 -121.5t-42 -110t-84 -80t-139.5 -30.5q-68 0 -115 17.5t-77.5 45t-45 60t-16.5 63.5h88q16 -66 63.5 -85t102.5 -19q59 0 95 25.5t55.5 63.5t26.5 85t7 90 q-37 -41 -89 -64.5t-107 -23.5q-68 0 -119 26.5t-84 70.5t-49.5 102.5t-16.5 119.5zM113 332v-9q0 -98 43 -170q45 -75 143 -75q43 0 77 19.5t58.5 51t36.5 73.5t12 89q0 98 -47 167t-137 69q-78 0 -131 -56.5t-55 -158.5z" />
<glyph unicode="h" horiz-adv-x="638" d="M78 0v870h92v-313q37 37 76 58.5t94 21.5q57 0 103 -19.5t81 -68.5q23 -33 28 -65.5t5 -71.5v-412h-92v408q0 72 -31 106.5t-104 34.5q-57 0 -94 -31t-54 -72q-10 -25 -11 -50t-1 -54v-342h-92z" />
<glyph unicode="i" horiz-adv-x="260" d="M78 0v627h92v-627h-92zM78 750v120h92v-120h-92z" />
<glyph unicode="j" horiz-adv-x="260" d="M-25 -174l64 6q25 4 35 21.5t10 31.5v742h92v-764q0 -27 -18.5 -64t-71.5 -53q-27 -8 -56 -9h-20q-18 0 -35 1v88zM84 750v120h92v-120h-92zM174 750v120v-120z" />
<glyph unicode="k" horiz-adv-x="593" d="M63 0v870h93v-520l282 277h123l-237 -230l262 -399l-105 4l-221 334l-104 -100v-236h-93z" />
<glyph unicode="l" horiz-adv-x="260" d="M78 0v870h92v-870h-92z" />
<glyph unicode="m" horiz-adv-x="1007" d="M76 0v627h92v-72q29 41 77 64.5t103 23.5q80 0 119 -29.5t59 -74.5q68 104 201 104q63 0 103 -21.5t60.5 -56.5t28 -80t7.5 -92v-393h-92v430q0 59 -25 95t-94 36q-37 0 -71 -15.5t-58 -49.5q-23 -29 -31 -76t-8 -82v-338h-92v430q0 59 -24.5 95t-94.5 36q-78 0 -131 -65 q-23 -29 -30 -76t-7 -82v-338h-92z" />
<glyph unicode="n" horiz-adv-x="655" d="M74 0v627h86v-76q41 41 85 66.5t103 25.5t108.5 -22.5t84.5 -69.5q23 -35 27.5 -70t4.5 -73v-408h-92v406q0 74 -32.5 112.5t-110.5 38.5q-61 0 -100 -34t-56 -77q-10 -29 -13 -54t-3 -56v-336h-92z" />
<glyph unicode="o" horiz-adv-x="669" d="M35 311q0 68 18.5 128.5t55 105.5t91 70.5t126.5 25.5q74 0 128 -25.5t91 -70.5t54 -105.5t17 -128.5q0 -74 -20.5 -135t-59 -104t-92 -66.5t-118.5 -23.5q-59 0 -112.5 20.5t-93.5 62t-62.5 103t-22.5 143.5zM129 311q0 -109 49 -178.5t148 -69.5q51 0 89 21.5 t61.5 56.5t34.5 79t11 91q0 51 -11 96.5t-34.5 79t-60.5 53t-90 19.5t-90 -21.5t-60.5 -56.5t-35 -79t-11.5 -91z" />
<glyph unicode="p" horiz-adv-x="655" d="M57 -262v889h93v-80q35 45 87 72.5t105 27.5q76 0 129 -25.5t86 -70.5t47 -106.5t14 -131.5q0 -66 -15 -125t-49 -105t-85 -73.5t-123 -27.5q-59 0 -109.5 24.5t-86.5 67.5v-336h-93zM150 311q0 -49 12 -94t34.5 -79t57.5 -53t82 -19q51 0 87 21.5t58.5 57t32.5 83.5 q8 41 8 86v18q-2 109 -52 170t-134 61q-96 0 -141 -73.5t-45 -178.5z" />
<glyph unicode="q" horiz-adv-x="655" d="M23 313q0 70 14 131.5t47 106.5t86 70.5t129 25.5q53 0 105.5 -27.5t87.5 -72.5v80h92v-889h-92v336q-37 -43 -87.5 -67.5t-109.5 -24.5q-72 0 -123 27.5t-85 73.5t-49 105.5t-15 124.5zM119 332v-18q0 -45 8 -86q10 -48 32.5 -83.5t58.5 -57t87 -21.5q45 0 81 19 t58.5 53t35 79t12.5 94q0 104 -45.5 178t-141.5 74q-84 0 -134 -61.5t-52 -169.5z" />
<glyph unicode="r" horiz-adv-x="389" d="M74 0v627h92v-97h12q29 53 68 82t73 33h56v-98q-29 0 -51.5 -4t-42.5 -11q-51 -23 -81 -69.5t-34 -122.5v-340h-92z" />
<glyph unicode="s" horiz-adv-x="593" d="M41 207h88q16 -80 56 -110.5t118 -30.5q72 0 107.5 31.5t35.5 72.5q0 39 -25.5 59.5t-62 32.5t-78.5 19.5t-75 19.5q-29 10 -56.5 22.5t-48 30t-33 44t-12.5 63.5q0 80 57.5 131t163.5 51q104 0 168 -46t76 -161h-90q-10 72 -50 98.5t-104 26.5q-129 0 -129 -94 q0 -29 14.5 -47.5t39 -30.5t55.5 -19.5t66 -15.5q39 -10 77.5 -21t69.5 -31.5t50.5 -52.5t19.5 -79q0 -92 -73 -139t-185 -47q-113 0 -174.5 63.5t-65.5 159.5z" />
<glyph unicode="t" horiz-adv-x="350" d="M31 547v80h92v170h92v-170h107v-80h-107v-447q1 -31 31 -37q15 -3 32.5 -3t38.5 3v-83q-45 -11 -79 -11q-4 1 -8 1q-36 2 -60.5 15t-35.5 33.5t-11 42.5v486h-92z" />
<glyph unicode="u" horiz-adv-x="655" d="M70 217v410h92v-408q0 -72 32.5 -110.5t110.5 -38.5q84 0 128 61.5t44 155.5v340h92v-627h-92v72q-14 -14 -30.5 -29.5t-38 -29t-49 -21.5t-64.5 -8q-127 0 -176 66.5t-49 166.5z" />
<glyph unicode="v" horiz-adv-x="593" d="M8 627h101l186 -506l184 506h103l-244 -627h-92z" />
<glyph unicode="w" horiz-adv-x="860" d="M6 627h98l142 -492l135 492h92l127 -488l148 488h98l-205 -627h-88l-131 508h6l-133 -508h-98z" />
<glyph unicode="x" horiz-adv-x="593" d="M0 0l240 324l-222 303h111l164 -236l168 236h112l-225 -303l234 -324h-109l-178 254l-186 -254h-109z" />
<glyph unicode="y" horiz-adv-x="618" d="M18 627h103l184 -504l182 504h103l-232 -613q-23 -59 -43 -106t-43.5 -80t-51 -50.5t-64.5 -17.5q-18 0 -37 2t-37 9v82q23 -4 36 -7.5t29 -3.5q29 0 46.5 18.5t28.5 44t18.5 53.5t15.5 48z" />
<glyph unicode="z" horiz-adv-x="593" d="M25 0v74l385 473h-359v80h486l-2 -72l-383 -475h401v-80h-528z" />
<glyph unicode="{" horiz-adv-x="399" d="M51 268v82q59 12 75.5 50t18.5 104v221q0 33 10.5 59.5t26 46t32.5 29.5t30 10l86 2v-77q-29 -4 -46.5 -6.5t-28.5 -8.5t-15 -19t-4 -38v-221q0 -49 -12.5 -84t-28 -57.5t-28.5 -36t-17 -15.5q4 -4 17 -16t28.5 -34.5t28 -57.5t12.5 -84v-211q0 -31 5 -47.5t16 -23.5 t29.5 -9t43.5 -4v-78l-86 4q-12 0 -29.5 10.5t-33 28.5t-26 45t-10.5 59v226q-2 66 -19 103.5t-75 47.5z" />
<glyph unicode="|" horiz-adv-x="311" d="M121 -258v1128h72v-1128h-72z" />
<glyph unicode="}" horiz-adv-x="399" d="M35 -178q25 2 43 4t29.5 9t16.5 23.5t5 47.5v211q0 49 12.5 84t27.5 57.5t28.5 34.5t17.5 16q-4 2 -17.5 15.5t-28.5 36t-27.5 57.5t-12.5 84v221q0 25 -4 38t-15.5 19t-29 8.5l-45.5 6.5v77l86 -2q12 0 28.5 -10t32 -29.5t26.5 -46t11 -59.5v-221q2 -66 18.5 -104 t75.5 -50v-82q-57 -10 -74.5 -48t-19.5 -103v-226q0 -33 -11 -59.5t-26.5 -44.5t-32 -28.5t-28.5 -10.5l-86 -4v78z" />
<glyph unicode="~" horiz-adv-x="698" d="M90 348q2 68 23.5 107t50.5 55t61.5 14t55.5 -16l155 -94q27 -16 48.5 -15.5t37 13t21.5 34t2 46.5h61q4 -41 -8 -72t-29 -53q-31 -41 -77 -49.5t-105 30.5l-127 82q-23 18 -43 17t-34.5 -15t-22.5 -36.5t-6 -47.5h-64z" />
<glyph unicode="&#xa2;" horiz-adv-x="663" d="M123 434q0 31 8 71t28.5 78t56.5 67.5t91 35.5v107h60v-107q129 -18 170 -162h-68q-14 41 -38.5 67.5t-63.5 35.5v-387q86 16 112 137h66q-14 -78 -60.5 -133.5t-117.5 -65.5v-104h-60v104q-51 8 -87 35t-57.5 62.5t-30.5 77.5t-9 81zM190 434q0 -78 31 -129t86 -65v385 q-55 -12 -86 -64.5t-31 -126.5z" />
<glyph unicode="&#xa3;" horiz-adv-x="659" d="M29 0v86h100v254h-100v82h100v215q0 55 18.5 101t50 80t75.5 52.5t96 18.5q49 0 94 -18.5t81 -51.5t57.5 -79t21.5 -99v-33h-91q0 88 -47 139.5t-114 51.5q-59 0 -104.5 -43t-45.5 -111v-223h223v-82h-223v-254h391v-86h-583z" />
<glyph unicode="&#xa5;" horiz-adv-x="792" d="M23 870h127l251 -419l248 419h127l-205 -331h179v-86h-232l-67 -109h299v-86h-299v-258h-101v258h-311v86h311l-67 109h-244v86h190z" />
<glyph unicode="&#xa9;" horiz-adv-x="964" d="M25 438q0 94 35.5 177t98 144.5t145.5 97.5t179 36q94 0 177 -36t144.5 -97.5t97.5 -144.5t36 -177t-36 -178t-97.5 -146.5t-144 -98t-177.5 -35.5q-96 0 -179 35.5t-145.5 98t-98 146.5t-35.5 178zM102 438q0 -80 30 -148.5t82 -120.5t120.5 -82t148.5 -30 q78 0 147.5 30t121 81t81 120.5t29.5 149.5q0 78 -29.5 147.5t-81 121t-121 81t-147.5 29.5q-80 0 -148.5 -29.5t-120.5 -81t-82 -121t-30 -147.5zM264 438q0 51 14.5 99.5t43 84t70.5 57t97 21.5q86 0 138.5 -41t68.5 -133h-69q-29 113 -138 113q-43 0 -71.5 -17.5t-47 -46 t-26.5 -64.5t-8 -73t8 -72.5t26.5 -64.5t47 -46t71.5 -17q59 0 95.5 34.5t46.5 94.5h71q-16 -88 -67 -139.5t-146 -51.5q-119 0 -172 76t-53 186z" />
<glyph unicode="&#xab;" horiz-adv-x="663" d="M117 272v107l188 147v-102l-129 -98l129 -99v-102zM358 272v107l187 147v-102l-125 -98l125 -99v-102z" />
<glyph unicode="&#xad;" horiz-adv-x="499" d="M53 242v88h391v-88h-391z" />
<glyph unicode="&#xae;" horiz-adv-x="880" d="M-16 430q0 94 35.5 177t98 144.5t145.5 97.5t179 36q94 0 177 -36t144.5 -97.5t97.5 -144.5t36 -177t-36 -178t-97.5 -146.5t-144 -98.5t-177.5 -36q-96 0 -179 36t-145.5 98.5t-98 146.5t-35.5 178zM41 430q0 -84 31.5 -156.5t86 -127t127 -86t156.5 -31.5 q82 0 156 31.5t127 86t85 127t32 156.5q0 82 -32 155.5t-85 127t-127 85t-156 31.5q-84 0 -156.5 -31.5t-127 -85t-86 -127t-31.5 -155.5zM272 174v510h238q29 0 56.5 -5t51.5 -20q29 -16 43.5 -46.5t14.5 -63.5q0 -76 -46 -106.5t-114 -32.5l154 -236h-74l-147 236h-115 v-236h-62zM334 459h153q45 0 85 16.5t40 75.5q0 29 -11 46t-29.5 26.5t-42 12.5t-48.5 3h-147v-180z" />
<glyph unicode="&#xbb;" horiz-adv-x="663" d="M117 125v102l131 99l-125 98v102l174 -147v-107zM354 125v102l129 99l-125 98v102l181 -147v-107z" />
<glyph unicode="&#xbc;" horiz-adv-x="839" d="M33 731v53q39 6 56 11.5t28 13.5q12 12 28 59h50v-428h-66v291h-96zM49 0l623 870h88l-623 -870h-88zM481 98v66l197 268h51v-268h64v-66h-64v-98h-65v98h-183zM553 164h111v166q-4 -8 -21.5 -35t-38.5 -55q-23 -35 -51 -76z" />
<glyph unicode="&#xbd;" horiz-adv-x="839" d="M29 0l622 870h88l-622 -870h-88zM33 733v53q39 6 56 11.5t28 13.5q12 12 28 59h50v-430h-66v293h-96zM498 0q2 45 12 77t28.5 54.5t46 40.5t66.5 39q29 14 53.5 33.5t24.5 56.5q0 23 -9 36t-22.5 20.5t-26 9.5t-18.5 2q-45 -2 -61.5 -26t-18.5 -71h-67q2 27 7 54.5 t21.5 51t47 39t80.5 15.5q66 0 101.5 -42t35.5 -89q0 -35 -16.5 -60.5t-40 -46t-51 -35t-50.5 -24.5q-6 -2 -34.5 -21.5t-35.5 -47.5h226v-66h-299z" />
<glyph unicode="&#xbe;" horiz-adv-x="839" d="M29 584h65q2 -35 16.5 -61.5t61.5 -26.5q45 2 65.5 22.5t20.5 46.5q0 47 -24.5 59.5t-92.5 12.5v59q55 0 79 10.5t24 53.5q0 35 -21.5 45t-42.5 10q-41 0 -58.5 -19.5t-17.5 -66.5h-67q4 150 137 150q57 0 99 -30t42 -97q0 -31 -13 -50.5t-30 -29.5q35 -18 45.5 -45 t10.5 -60q0 -61 -44 -97t-108 -36q-45 0 -72.5 14.5t-44 36t-22.5 48t-8 51.5zM100 0l623 870h88l-623 -870h-88zM487 98v66l197 268h51v-268h64v-66h-64v-98h-65v98h-183zM559 164h111v151z" />
<glyph unicode="&#xd7;" horiz-adv-x="641" d="M74 465l65 65l180 -180l181 180l63 -63l-180 -178l172 -174l-66 -66l-172 172l-178 -176l-61 61l176 179z" />
<glyph unicode="&#xf7;" horiz-adv-x="698" d="M59 246v84h580v-84h-580zM287 -2v125h125v-125h-125zM287 453v125h125v-125h-125z" />
<glyph unicode="&#xe01;" horiz-adv-x="739" d="M43 545q35 43 82 80q41 31 99.5 56.5t133.5 25.5q57 0 107.5 -14.5t87.5 -42t58.5 -69.5t21.5 -100v-481h-84v481q0 74 -56.5 116t-134.5 42q-47 0 -100 -18.5t-94 -53.5q25 -6 49 -16q23 -10 47.5 -24.5t50.5 -37.5q-33 -8 -55 -26q-23 -16 -39 -43t-16 -72v-348h-86 v344q0 72 26.5 100.5t55.5 40.5q-18 14 -41 27q-20 10 -49 19.5t-64 13.5z" />
<glyph unicode="&#xe02;" horiz-adv-x="753" d="M42 512q-3 25 1 49q6 33 26.5 60.5t49 46t62.5 29t67 10.5q49 0 88 -15.5t64.5 -41t40 -57.5t14.5 -65q0 -41 -10.5 -63.5t-23.5 -40.5t-23.5 -44t-10.5 -73v-233h111q41 0 52 12t11 47v559h86v-559q0 -41 -7 -67.5t-23.5 -41t-45 -19.5t-73.5 -5h-281v74h86v245 q0 41 10.5 64t22.5 40t24.5 38.5t16.5 60.5q4 59 -42 94t-104 19q23 -6 39 -21q14 -12 24.5 -33.5t8.5 -58.5q-4 -63 -48 -93t-97 -21q-37 4 -61.5 20t-38 37.5t-16.5 46.5zM111 536.5q0 -24.5 16 -44t47 -19.5t47.5 19.5t16.5 44t-16.5 44t-47.5 19.5t-47 -19.5t-16 -44z " />
<glyph unicode="&#xe03;" horiz-adv-x="798" d="M14 467q-4 47 13 102q10 35 32.5 62.5t48 45t49 26t36.5 4.5l88 -56l81 56q20 -6 44 -18.5t44.5 -29t34 -38t13.5 -48.5q0 -25 -10.5 -38t-21.5 -23t-21.5 -24.5t-10.5 -45.5v-368h111q41 0 52 12t11 47v559h84v-559q0 -41 -6 -67.5t-22.5 -41t-45 -19.5t-73.5 -5h-281 v74h84v372q0 57 21.5 78t44.5 35q14 10 12 24.5t-12.5 27t-24.5 21.5t-22 11l-86 -57l-99 57q-45 -14 -68.5 -49t-19.5 -57q0 -2 15.5 10t48.5 12q47 -2 87 -29.5t40 -95.5q0 -31 -12.5 -54.5t-31 -38.5t-41 -22.5t-42.5 -7.5q-41 0 -72 19.5t-49.5 54.5t-22.5 82zM94 437.5 q0 -23.5 16.5 -43t47.5 -19.5t47 19.5t16 43t-16.5 43t-46.5 19.5q-31 0 -47.5 -19.5t-16.5 -43z" />
<glyph unicode="&#xe04;" horiz-adv-x="747" d="M51 463q0 82 44 137t109.5 83t142.5 29t142.5 -26t109.5 -80t44 -133v-473h-86v463q0 61 -31.5 101t-79 60.5t-103.5 20.5t-103 -20.5t-79 -62.5t-32 -103q0 -45 13.5 -83t39.5 -63v56q0 72 38 122t116 50q61 0 93 -39t32 -87t-31 -87t-94 -39q-23 0 -43.5 7t-32.5 19 v-315h-86v229q-57 39 -90 99.5t-33 134.5zM272 414.5q0 -23.5 16.5 -43t47.5 -19.5t47 19.5t16 43t-16 43t-47 19.5t-47.5 -19.5t-16.5 -43z" />
<glyph unicode="&#xe05;" horiz-adv-x="747" d="M51 463q0 39 16.5 74.5t44 67.5t62.5 57.5t74 44.5l119 -82l114 82q51 -27 84 -56.5t49.5 -60.5t22.5 -60.5t6 -56.5v-473h-86v463q0 49 -8 78.5t-20.5 47t-26 26t-25.5 18.5l-110 -72q-10 6 -19 12q-8 4 -17 10.5t-20 14.5q-25 16 -55 35q-68 -31 -96.5 -75t-28.5 -99 q0 -45 12.5 -83t38.5 -63v56q0 72 38 122t116 50q61 0 93 -39t32 -87t-31 -87t-94 -39q-23 0 -43.5 7t-32.5 19v-315h-86v229q-57 39 -90 99.5t-33 134.5zM272 414.5q0 -23.5 16.5 -43t47.5 -19.5t47 19.5t16 43t-16 43t-47 19.5t-47.5 -19.5t-16.5 -43z" />
<glyph unicode="&#xe06;" horiz-adv-x="935" d="M31 467q-4 47 12 102q10 35 33.5 62.5t49.5 45t48.5 26t34.5 4.5l88 -56l82 56q20 -6 43.5 -18.5t44 -29t34 -38t13.5 -48.5q0 -25 -10 -38t-21.5 -23t-21.5 -24.5t-10 -45.5v-139q55 -4 102 -21.5t85 -41t64.5 -49t40.5 -46.5v547h86v-692h-86q2 29 -20.5 66.5t-61 72.5 t-93 61.5t-117.5 32.5v-127q0 -53 -28 -85.5t-87 -32.5q-43 0 -73 22.5t-44 57t-13 75.5t18.5 76t52 58.5t88.5 25.5v23v48.5t1 49.5l1 22q0 57 21.5 78t41.5 35q14 10 12 24.5t-12 27t-24.5 21.5t-22.5 11l-86 -57l-96 57q-45 -14 -70 -49t-20 -57q0 -2 16 10t49 12 q47 -2 87 -29.5t40 -95.5q0 -31 -12 -54.5t-31.5 -38.5t-42 -22.5t-43.5 -7.5q-41 0 -71.5 19.5t-49 54.5t-22.5 82zM111 437.5q0 -23.5 16 -43t47 -19.5t47.5 19.5t16.5 43t-16.5 43t-47.5 19.5t-47 -19.5t-16 -43zM278.5 122q4.5 -28 18.5 -44q18 -23 44 -20t26 36v144 q-35 0 -55.5 -18.5t-29 -44t-4 -53.5z" />
<glyph unicode="&#xe07;" horiz-adv-x="587" d="M31 434l67 39l230 -387q14 -25 40.5 -22.5t26.5 32.5v363q-10 -6 -18 -7t-21 -1q-61 0 -93 38.5t-32 87t31 87t94 38.5q59 0 92 -36.5t33 -92.5v-483q0 -47 -26.5 -72.5t-62.5 -31.5t-73.5 9t-58.5 52zM293 575.5q0 -24.5 16 -44t47 -19.5t47.5 19.5t16.5 44t-16.5 44 t-47.5 19.5t-47 -19.5t-16 -44z" />
<glyph unicode="&#xe08;" horiz-adv-x="677" d="M33 565q14 20 36.5 45t56.5 46.5t79 36t106 14.5q55 0 102.5 -14.5t83 -42t56 -69.5t20.5 -98v-483h-81q-2 35 -18.5 85t-37.5 95q-23 53 -53 107q-10 -29 -41 -46.5t-66 -17.5q-63 0 -93.5 39t-30.5 86t31.5 87t92.5 40q39 0 73 -20.5t54 -61.5l89 -180v266 q0 45 -16.5 77t-43 50.5t-59.5 26.5t-66 8q-78 0 -132 -35t-89 -82zM213 349.5q0 -23.5 16 -43t47 -19.5t47.5 19.5t16.5 43t-16.5 43t-47.5 19.5t-47 -19.5t-16 -43z" />
<glyph unicode="&#xe09;" horiz-adv-x="798" d="M43 359.5q0 48.5 30.5 87t94.5 38.5q59 0 92 -36.5t33 -90.5v-208q53 66 128 101.5t144 45.5v90v90q0 80 -49 122t-133 42q-78 0 -132 -39t-83 -80l-53 43q33 51 102.5 96.5t165.5 45.5q119 0 193.5 -60.5t74.5 -169.5v-180q66 -12 98.5 -54.5t32.5 -105.5 q0 -68 -38.5 -108.5t-96.5 -40.5q-35 0 -58.5 21.5t-23.5 60.5q-2 0 -1 24.5t1 55.5v79q-61 -10 -111.5 -34.5t-86 -58.5t-55 -69.5t-19.5 -66.5h-84v244q-10 -8 -19.5 -9.5t-21.5 -1.5q-61 0 -93 39t-32 87.5zM104 359.5q0 -23.5 16.5 -43t47.5 -19.5q33 0 48 19.5t15 43 t-15 43t-48 19.5q-31 0 -47.5 -19.5t-16.5 -43zM651 74q0 -18 13 -19q23 -2 39 23.5t16 58.5q0 35 -16.5 61.5t-51.5 30.5v-155z" />
<glyph unicode="&#xe0a;" horiz-adv-x="753" d="M42 512q-3 25 1 49q16 78 76.5 112t126.5 34q76 0 128 -38t68 -85q37 2 74 18q33 14 72 46t76 95l59 -36q-20 -43 -49 -73t-58 -46q-33 -20 -67 -31q27 -2 49 -18q18 -14 33.5 -42t15.5 -79v-285q0 -41 -7 -67.5t-23.5 -41t-45 -19.5t-73.5 -5h-281v74h86v256 q0 41 10.5 61.5t22.5 36.5t24.5 35.5t16.5 58.5q4 59 -42 94t-104 19q23 -6 39 -21q14 -12 24.5 -33.5t8.5 -58.5q-4 -63 -48 -93t-97 -21q-37 4 -61.5 20t-38 37.5t-16.5 46.5zM111 536.5q0 -24.5 16 -44t47 -19.5t47.5 19.5t16.5 44t-16.5 44t-47.5 19.5t-47 -19.5 t-16 -44zM387 74h113q41 0 52 12t11 47v266q0 53 -17.5 79t-37.5 36q-25 10 -55 8q2 -41 -8.5 -60.5t-22.5 -35.5t-23.5 -38.5t-11.5 -70.5v-243z" />
<glyph unicode="&#xe0b;" horiz-adv-x="798" d="M14 467q-4 47 13 102q10 35 32.5 62.5t48 45t49 26t36.5 4.5l88 -56l81 56q37 -10 63 -27.5t42 -36.5q18 -23 31 -47q41 10 77 33q33 18 70 51t66 86l63 -43q-23 -41 -54.5 -69.5t-60.5 -47.5q-35 -23 -71 -37l16 -4q17 -4 36 -19.5t35.5 -46t16.5 -81.5v-285 q0 -41 -6 -67.5t-22.5 -41t-45 -19.5t-73.5 -5h-281v74h84v372q0 29 6 47.5t15.5 31t20.5 19.5t24 15q14 10 12 23.5t-12.5 26t-24.5 22.5t-22 12l-86 -57l-99 57q-45 -14 -68.5 -49t-19.5 -57q0 -2 15.5 10t48.5 12q47 -2 87 -29.5t40 -95.5q0 -31 -12.5 -54.5t-31 -38.5 t-41 -22.5t-42.5 -7.5q-41 0 -72 19.5t-49.5 54.5t-22.5 82zM94 437.5q0 -23.5 16.5 -43t47.5 -19.5t47 19.5t16 43t-16.5 43t-46.5 19.5q-31 0 -47.5 -19.5t-16.5 -43zM434 74h111q41 0 52 12t11 47v285q0 53 -18.5 77.5t-40.5 34.5q-27 10 -60 7q-8 -12 -17 -18.5 t-17.5 -13.5t-14.5 -21.5t-6 -41.5v-368z" />
<glyph unicode="&#xe0c;" horiz-adv-x="1009" d="M43 578q31 35 72 63q35 25 89 45.5t128 20.5q55 0 101 -9.5t81 -32t54.5 -60.5t19.5 -95v-256q20 -4 50 -18.5t62.5 -35t63.5 -46t55 -52.5v590h84v-692h-84q-6 12 -24.5 36.5t-49 53.5t-70.5 54.5t-87 41.5v-108q0 -41 -20.5 -65.5t-61.5 -24.5q-53 0 -82 41t-29 98 q0 53 27 89t80 40v254q0 55 -32 87t-81 41t-108.5 -3t-114.5 -43q25 -8 49 -21q23 -10 48.5 -26.5t51.5 -38.5q-33 -4 -57 -19q-23 -14 -40 -40.5t-17 -79.5l-2 -138q14 8 45 9q59 0 88.5 -39t29.5 -86t-29.5 -86t-88.5 -39q-55 0 -92 33.5t-37 93.5v247q0 70 28.5 104 t57.5 44q-20 14 -43 27q-23 10 -51.5 21t-63.5 20zM176 113.5q0 -23.5 16.5 -43t47.5 -19.5t47 19.5t16 43t-16.5 43t-46.5 19.5q-31 0 -47.5 -19.5t-16.5 -43zM455 119q0 -35 21.5 -49.5t25.5 12.5v115q-29 -4 -38 -25.5t-9 -52.5z" />
<glyph unicode="&#xe0d;" horiz-adv-x="1009" d="M43 578q31 35 72 63q35 25 89 45.5t128 20.5q55 0 101 -9.5t81 -32t54.5 -60.5t19.5 -95v-436h168q41 0 52 12t11 47v559h84v-559q0 -41 -6 -67.5t-22.5 -41t-45 -19.5t-73.5 -5h-338v74h84v436q0 55 -32 87t-81 41t-108.5 -3t-114.5 -43q25 -8 49 -21q23 -10 48.5 -26.5 t51.5 -38.5q-33 -4 -57 -19q-23 -14 -40 -40.5t-17 -79.5l-2 -138q14 8 45 9q59 0 88.5 -39t29.5 -86t-29.5 -86t-88.5 -39q-55 0 -92 33.5t-37 93.5v247q0 70 28.5 104t57.5 44q-20 14 -43 27q-23 10 -51.5 21t-63.5 20zM176 113.5q0 -23.5 16.5 -43t47.5 -19.5t47 19.5 t16 43t-16.5 43t-46.5 19.5q-31 0 -47.5 -19.5t-16.5 -43zM408 -193q0 20 6 44t20.5 42.5t39 29.5t58.5 9q51 -2 79 -29.5t35 -63.5t-6 -70.5t-44 -53.5q63 -2 113 21q41 18 74.5 61t29.5 129h41h43q0 -90 -36 -147.5t-89 -88t-116.5 -34.5t-119 12.5t-92 52t-36.5 86.5z M471 -188.5q0 -20.5 14 -38t43 -17.5q27 0 41.5 17.5t14.5 38t-14.5 38t-41.5 17.5q-29 0 -43 -17.5t-14 -38z" />
<glyph unicode="&#xe0e;" horiz-adv-x="825" d="M33 113q0 47 31.5 86t95.5 39q14 0 22 -1t19 -8v115q0 72 25.5 100.5t54.5 40.5q-18 14 -41 27q-20 10 -49 19.5t-64 13.5q37 43 84 80q41 31 98.5 56.5t132.5 25.5q57 0 107.5 -14.5t88.5 -42t59.5 -69.5t21.5 -100v-829h-78q-27 35 -58.5 63.5t-60.5 48.5 q-35 23 -69 43q-6 -25 -22.5 -52t-42.5 -49.5t-59.5 -38t-74.5 -13.5q-59 4 -98 41t-35 96q2 49 26.5 81t63.5 46t90 10t107 -24q4 12 10 28q4 14 8 31t6 39l70 -20q-2 -18 -5 -38t-8 -36q-6 -18 -10 -35q47 -25 92 -56.5t62 -54.5v359v360q0 78 -56.5 118t-134.5 40 q-47 0 -99 -18.5t-93 -53.5l12 -4t33.5 -13t48.5 -23.5t51 -37.5q-33 -8 -55 -26q-23 -16 -39 -43t-16 -72v-237q0 -47 -31 -85t-94 -38t-95 39t-32 86zM96 113.5q0 -23.5 16.5 -43t47.5 -19.5t47 19.5t16 43t-16.5 43t-46.5 19.5q-31 0 -47.5 -19.5t-16.5 -43z M193.5 -193.5q-5.5 -23.5 3.5 -44.5q6 -16 19 -24t29.5 -12.5t35 -2t30.5 8.5q18 10 32.5 26.5t25.5 34.5q10 20 18 45q-66 20 -105.5 19.5t-61 -14t-27 -37z" />
<glyph unicode="&#xe0f;" horiz-adv-x="825" d="M33 113q0 47 31.5 86t95.5 39q25 0 41 -9v115q0 72 25.5 100.5t54.5 40.5q-18 14 -41 27q-20 10 -49 19.5t-64 13.5q37 43 84 80q41 31 98.5 56.5t132.5 25.5q57 0 107.5 -14.5t88.5 -42t59.5 -69.5t21.5 -100v-829h-82l-96 115l-103 -115q-10 16 -22.5 32.5t-22.5 30.5 q-12 16 -26 31q-14 -27 -37 -49q-18 -18 -46 -33.5t-63 -13.5q-49 0 -83 34.5t-29 98.5q2 43 26.5 67.5t59 34t73.5 2t70 -31.5q8 23 16 45q6 20 12.5 45.5t10.5 52.5l67 -18q-6 -45 -21 -95.5t-28 -77.5q10 -8 19 -16q8 -8 16 -17.5t16 -19.5l91 92l96 -98v733 q0 78 -56.5 118t-134.5 40q-47 0 -99 -18.5t-93 -53.5l12 -4t33.5 -13t48.5 -23.5t51 -37.5q-33 -8 -55 -26q-23 -16 -39 -43t-16 -72v-237q0 -47 -31 -85t-94 -38t-95 39t-32 86zM96 113.5q0 -23.5 16.5 -43t47.5 -19.5t47 19.5t16 43t-16.5 43t-46.5 19.5 q-31 0 -47.5 -19.5t-16.5 -43zM178 -215q-6 -25 2 -40t21.5 -23.5t31 -8.5t29.5 11q12 10 21.5 23t15.5 24q8 12 14 26q-53 35 -90 26t-45 -38z" />
<glyph unicode="&#xe10;" horiz-adv-x="659" d="M29 -279q2 31 19.5 53.5t44 34t58 7.5t62.5 -25l10 41q4 18 7 43t-1 51h31h33q2 -92 -31 -184l17 -25q6 -10 10 -17t6 -7l63 35l80 -52l31 21q10 6 10 24q0 8 -2 21q0 -2 -4 -2q-4 -2 -18 -2q-51 0 -76 31.5t-24 68.5t27 68t73 31q43 0 70.5 -28t27.5 -75v-119 q0 -35 -17.5 -49t-41.5 -28l-60 -33l-76 51l-82 -47l-43 72q-12 -25 -38.5 -46.5t-71.5 -17.5q-41 4 -68.5 28.5t-25.5 75.5zM85 -282.5q-1 -16.5 10 -31t38 -14.5q16 0 27.5 8.5t19.5 19.5t10 15l7 13q-10 8 -19 16q-10 6 -20.5 12t-24.5 6q-23 0 -35 -14t-13 -30.5z M86 541q14 29 37.5 58.5t53.5 53t66 39t76 15.5q53 0 92.5 -13.5t74 -26t69.5 -16.5t78 17l4 -13q2 -4 3 -11t3 -13q4 -17 8 -35q-55 -25 -98 -20.5t-81 17.5t-75 28.5t-78 15.5q-35 0 -64.5 -17.5t-33.5 -27.5q33 -10 66 -19q29 -8 60.5 -15t55.5 -13q53 -14 84 -32.5 t45.5 -44.5t17.5 -57.5t3 -70.5v-170q0 -66 -1 -118t1 -52h-102q-6 37 -20.5 79t-31.5 77q-18 41 -37 82q-10 -29 -40.5 -46.5t-65.5 -17.5q-63 0 -94 39t-31 86t32 87t93 40q39 0 74 -20.5t53 -61.5l84 -174v166q0 41 -7 66.5t-21.5 42t-37 25.5t-53.5 19q-41 10 -87 20.5 t-85 16.5q-45 8 -90 15zM193 300q0 -24 16 -43t47 -19t47 19t16 43t-16 43t-47 19t-47 -19t-16 -43zM406 -163.5q0 -18.5 12 -34t37 -15.5t37 15.5t12 34t-12.5 33.5t-36.5 15q-25 0 -37 -15t-12 -33.5z" />
<glyph unicode="&#xe11;" horiz-adv-x="960" d="M14 467q-4 47 13 102q10 35 32.5 62.5t48 45t49 26t36.5 4.5l88 -56l81 56q20 -6 44 -18.5t44.5 -29t34 -38t13.5 -48.5q0 -25 -10.5 -38t-21.5 -23t-21.5 -24.5t-10.5 -45.5v-110q37 100 82 180q39 68 91 124t116 56q70 0 100.5 -49t30.5 -106v-537h-84v537q0 23 -8 51 t-43 28q-25 0 -54.5 -29.5t-62.5 -79.5t-62.5 -114.5t-54 -133.5t-39 -136.5t-12.5 -122.5h-86v446q0 57 21.5 78t44.5 35q14 10 12 24.5t-12.5 27t-24.5 21.5t-22 11l-86 -57l-99 57q-45 -14 -68.5 -49t-19.5 -57q0 -2 15.5 10t48.5 12q47 -2 87 -29.5t40 -95.5 q0 -31 -12.5 -54.5t-31 -38.5t-41 -22.5t-42.5 -7.5q-41 0 -72 19.5t-49.5 54.5t-22.5 82zM94 437.5q0 -23.5 16.5 -43t47.5 -19.5t47 19.5t16 43t-16.5 43t-46.5 19.5q-31 0 -47.5 -19.5t-16.5 -43z" />
<glyph unicode="&#xe12;" horiz-adv-x="1064" d="M49 455q2 45 19.5 82.5t44 69.5t61.5 56.5t74 43.5l119 -82l114 82q51 -27 84 -52.5t49.5 -55.5t22.5 -63.5t6 -76.5v-205q23 -4 55.5 -21.5t66.5 -40t63.5 -47t45.5 -45.5v592h84v-692h-84q-4 12 -23.5 36.5t-49 53.5t-70.5 54.5t-88 41.5v-108q0 -41 -20.5 -65.5 t-61.5 -24.5q-53 0 -81.5 41t-28.5 98q0 53 26.5 89t79.5 40v203q0 66 -13.5 102.5t-66.5 71.5l-110 -72q-10 6 -19 12q-8 4 -17 10.5t-20 14.5q-25 16 -55 35q-63 -33 -94 -77t-35 -93t13.5 -103.5t47.5 -107.5q18 -35 26.5 -52.5t12.5 -27.5t2 -14q12 27 27.5 49t28.5 39 q14 20 30 35q-51 14 -73.5 54t-18.5 83t36 76.5t89 33.5q61 0 93 -41t32 -88q-2 -51 -25.5 -75.5t-46.5 -51.5q-49 -57 -91 -122.5t-58 -149.5h-86q20 37 11 76t-19 74q-10 29 -28.5 61.5t-37 71.5t-32 82t-11.5 90zM285 401.5q0 -24.5 16 -44t47 -19.5t47.5 19.5t16.5 44 t-16.5 44t-47.5 19.5t-47 -19.5t-16 -44zM510 119q0 -35 21.5 -49.5t25.5 12.5v115q-29 -4 -38 -25.5t-9 -52.5z" />
<glyph unicode="&#xe13;" horiz-adv-x="1038" d="M43 578q31 35 72 63q35 25 89 45.5t128 20.5q55 0 101 -9.5t81 -32t54.5 -60.5t19.5 -95v-360q31 51 92 92t127 57v393h84v-393q59 -8 96 -44t37 -114q0 -70 -34 -106.5t-75 -45.5t-74.5 10t-33.5 64v166q-45 -12 -84 -39.5t-67.5 -59.5t-48 -66.5t-23.5 -63.5h-82v510 q0 55 -32 87t-81 41t-108.5 -3t-114.5 -43q25 -8 49 -21q23 -10 48.5 -26.5t51.5 -38.5q-33 -4 -57 -19q-23 -14 -40 -40.5t-17 -79.5l-2 -138q14 8 45 9q59 0 88.5 -39t29.5 -86t-29.5 -86t-88.5 -39q-55 0 -92 33.5t-37 93.5v247q0 70 28.5 104t57.5 44q-20 14 -43 27 q-23 10 -51.5 21t-63.5 20zM176 113.5q0 -23.5 16.5 -43t47.5 -19.5t47 19.5t16 43t-16.5 43t-46.5 19.5q-31 0 -47.5 -19.5t-16.5 -43zM891 78q0 -18 10 -21.5t23.5 5t23.5 28.5t10 51q0 39 -15 63.5t-52 28.5v-155z" />
<glyph unicode="&#xe14;" horiz-adv-x="747" d="M51 455q8 123 83 190.5t216 67.5q82 0 137.5 -22.5t90 -58.5t50 -82t15.5 -91v-459h-86v463q0 27 -7 59.5t-29.5 60t-63.5 46t-107 18.5q-96 0 -159.5 -49t-65.5 -147q0 -47 14.5 -94.5t38.5 -100.5q14 -29 24.5 -59.5t14.5 -53.5q14 27 30.5 50.5t33.5 44.5q18 23 34 43 q-51 14 -73.5 54t-18.5 83t36 76.5t89 33.5q61 0 93 -41t32 -88q-2 -51 -25.5 -75.5t-46.5 -51.5q-49 -57 -99 -122.5t-66 -149.5h-84q12 53 6 98q-6 43 -24.5 85t-38 85t-34 88t-10.5 99zM285 401.5q0 -24.5 16 -44t47 -19.5t47.5 19.5t16.5 44t-16.5 44t-47.5 19.5 t-47 -19.5t-16 -44z" />
<glyph unicode="&#xe15;" horiz-adv-x="747" d="M51 455q4 90 52.5 156.5t127.5 95.5l119 -82l115 82q100 -49 139 -105.5t39 -142.5v-459h-86v459q0 66 -21.5 102.5t-74.5 71.5l-111 -72q-10 6 -18 12q-8 4 -17.5 10.5t-19.5 14.5q-25 16 -55 35q-66 -35 -89.5 -82t-25.5 -100q0 -47 14.5 -94.5t38.5 -100.5 q14 -29 24.5 -60.5t14.5 -52.5q14 27 30.5 50.5t33.5 44.5q18 23 34 43q-51 14 -73.5 54t-18.5 83t36 76.5t89 33.5q61 0 93 -41t32 -88q-2 -51 -25.5 -75.5t-46.5 -51.5q-49 -57 -99 -122.5t-66 -149.5h-84q12 53 6 98q-6 43 -23.5 84t-37 84t-34 89t-12.5 100zM285 401.5 q0 -24.5 16 -44t47 -19.5t47.5 19.5t16.5 44t-16.5 44t-47.5 19.5t-47 -19.5t-16 -44z" />
<glyph unicode="&#xe16;" horiz-adv-x="739" d="M43 545q35 43 82 80q41 31 99.5 56.5t133.5 25.5q57 0 107.5 -14.5t87.5 -42t58.5 -69.5t21.5 -100v-481h-84v481q0 74 -56.5 116t-134.5 42q-47 0 -100 -18.5t-94 -53.5q25 -6 49 -16q23 -10 47.5 -24.5t50.5 -37.5q-33 -8 -55 -26q-20 -16 -37.5 -43t-17.5 -72l-2 -119 q14 8 45 9q59 0 88.5 -39t29.5 -86t-29.5 -86t-88.5 -39q-55 0 -92 33.5t-37 93.5v229q0 72 26.5 100.5t55.5 40.5q-18 14 -41 27q-20 10 -49 19.5t-64 13.5zM176 113.5q0 -23.5 16.5 -43t47.5 -19.5t47 19.5t16 43t-16.5 43t-46.5 19.5q-31 0 -47.5 -19.5t-16.5 -43z" />
<glyph unicode="&#xe17;" horiz-adv-x="821" d="M43 576.5q0 48.5 31.5 87t93.5 38.5q59 0 92 -36.5t33 -90.5v-243q16 39 44 99.5t64.5 118.5t81.5 100t101 42q70 0 100.5 -49t30.5 -106v-537h-86v537q0 23 -8.5 51t-42.5 28q-23 0 -53.5 -29.5t-62.5 -79.5t-62.5 -114.5t-55.5 -133.5t-39 -136.5t-12 -122.5h-84v459 q-14 -8 -41 -8q-61 0 -93 38.5t-32 87zM104 575.5q0 -24.5 16.5 -44t47.5 -19.5q33 0 48 19.5t15 44t-15 44t-48 19.5q-31 0 -47.5 -19.5t-16.5 -44z" />
<glyph unicode="&#xe18;" horiz-adv-x="655" d="M72 522.5q2 14.5 10 32.5q8 25 26.5 51.5t45 49t61.5 37t78 14.5q51 0 89 -11.5t69.5 -21.5t60.5 -13.5t63 13.5l15 -62q-47 -18 -85 -16t-75 11t-72.5 19.5t-74.5 10.5q-29 0 -49.5 -10.5t-33 -23.5t-19.5 -24.5t-7 -13.5q68 -4 129 -14q53 -10 107.5 -25.5t89.5 -38.5 q31 -23 37 -47t6 -78v-229q0 -41 -6.5 -67.5t-22.5 -41t-43 -19.5t-70 -5h-305v74h80v346h80v-346h145q41 0 51.5 12t10.5 47v221v34.5t-4 25t-14.5 19.5t-32.5 20q-14 6 -53.5 16t-88.5 19.5t-102 15.5t-94 4q-4 0 -2 14.5z" />
<glyph unicode="&#xe19;" horiz-adv-x="802" d="M43 576.5q0 48.5 31.5 87t93.5 38.5q59 0 92 -36.5t33 -90.5v-442q35 47 72.5 78t74.5 49.5t71 27.5t58 15v389h86v-393q59 -8 95 -44t36 -114q0 -70 -33.5 -106.5t-74.5 -45.5t-75 10t-34 64v170q-61 -10 -110 -42.5t-83 -71.5t-55.5 -73t-27.5 -46h-84v459 q-14 -8 -41 -8q-61 0 -93 38.5t-32 87zM104 575.5q0 -24.5 16.5 -44t47.5 -19.5q33 0 48 19.5t15 44t-15 44t-48 19.5q-31 0 -47.5 -19.5t-16.5 -44zM654 208.5q1 -24.5 1 -52.5v-78q0 -18 10.5 -21.5t23.5 5t23.5 28.5t10.5 51q0 39 -16.5 63.5t-51.5 28.5q-2 0 -1 -24.5z " />
<glyph unicode="&#xe1a;" horiz-adv-x="798" d="M43 576.5q0 48.5 31.5 87t93.5 38.5q59 0 92 -36.5t33 -90.5v-501h252q41 0 52 12t11 47v559h84v-559q0 -41 -6 -67.5t-22.5 -41t-45 -19.5t-73.5 -5h-422v74h86v385q-14 -8 -41 -8q-61 0 -93 38.5t-32 87zM104 575.5q0 -24.5 16.5 -44t47.5 -19.5q33 0 48 19.5t15 44 t-15 44t-48 19.5q-31 0 -47.5 -19.5t-16.5 -44z" />
<glyph unicode="&#xe1b;" horiz-adv-x="798" d="M43 576.5q0 48.5 31.5 87t93.5 38.5q59 0 92 -36.5t33 -90.5v-501h252q41 0 52 12t11 47v883h84v-883q0 -41 -6 -67.5t-22.5 -41t-45 -19.5t-73.5 -5h-422v74h86v385q-14 -8 -41 -8q-61 0 -93 38.5t-32 87zM104 575.5q0 -24.5 16.5 -44t47.5 -19.5q33 0 48 19.5t15 44 t-15 44t-48 19.5q-31 0 -47.5 -19.5t-16.5 -44z" />
<glyph unicode="&#xe1c;" horiz-adv-x="765" d="M106 0v573q0 55 33 92t90 37q63 0 95 -38.5t32 -87t-31.5 -87t-95.5 -38.5q-20 0 -36 8v-142q0 -53 -1.5 -96t1.5 -43l190 209l190 -209v514h84v-692h-43q-16 0 -28.5 -1t-12.5 1q0 39 -8 68.5t-33 58.5l-149 166l-150 -166q-25 -29 -32.5 -58.5t-7.5 -68.5h-87z M168 575.5q0 -24.5 16 -44t47 -19.5t47.5 19.5t16.5 44t-16.5 44t-47.5 19.5t-47 -19.5t-16 -44z" />
<glyph unicode="&#xe1d;" horiz-adv-x="763" d="M106 0v573q0 55 33 92t90 37q63 0 95 -38.5t32 -87t-31.5 -87t-95.5 -38.5q-20 0 -36 8v-142q0 -53 -1.5 -96t1.5 -43l190 209l190 -209v838h84v-1016h-43q-16 0 -28.5 -1t-12.5 1q0 39 -8 68.5t-33 58.5l-149 166l-150 -166q-25 -29 -32.5 -58.5t-7.5 -68.5h-87z M168 575.5q0 -24.5 16 -44t47 -19.5t47.5 19.5t16.5 44t-16.5 44t-47.5 19.5t-47 -19.5t-16 -44z" />
<glyph unicode="&#xe1e;" horiz-adv-x="884" d="M43 576.5q0 48.5 31.5 87t93.5 38.5q59 0 92 -36.5t33 -90.5v-350l207 467l207 -471v471h84v-692h-84l-1 8t-3.5 21.5t-5.5 29t-9 27.5l-188 442l-189 -442q-6 -14 -9 -28.5t-5 -26.5q-2 -14 -4 -31h-84v459q-14 -8 -41 -8q-61 0 -93 38.5t-32 87zM104 575.5 q0 -24.5 16.5 -44t47.5 -19.5q33 0 48 19.5t15 44t-15 44t-48 19.5q-31 0 -47.5 -19.5t-16.5 -44z" />
<glyph unicode="&#xe1f;" horiz-adv-x="897" d="M43 576.5q0 48.5 31.5 87t93.5 38.5q59 0 92 -36.5t33 -90.5v-350l207 467l207 -471v795h84v-1016h-84l-1 8t-3.5 21.5t-5.5 29t-9 27.5l-188 442l-189 -442q-6 -14 -9 -28.5t-5 -26.5q-2 -14 -4 -31h-84v459q-14 -8 -41 -8q-61 0 -93 38.5t-32 87zM104 575.5 q0 -24.5 16.5 -44t47.5 -19.5q33 0 48 19.5t15 44t-15 44t-48 19.5q-31 0 -47.5 -19.5t-16.5 -44z" />
<glyph unicode="&#xe20;" horiz-adv-x="825" d="M33 113q0 47 31.5 86t95.5 39q25 0 41 -9v115q0 72 25.5 100.5t54.5 40.5q-18 14 -41 27q-20 10 -49 19.5t-64 13.5q37 43 84 80q41 31 98.5 56.5t132.5 25.5q57 0 107.5 -14.5t88.5 -42t59.5 -69.5t21.5 -100v-481h-86v481q0 78 -56.5 118t-134.5 40q-47 0 -99 -18.5 t-93 -53.5l12 -4t33.5 -13t48.5 -23.5t51 -37.5q-33 -8 -55 -26q-23 -16 -39 -43t-16 -72v-237q0 -47 -31 -85t-94 -38t-95 39t-32 86zM96 113.5q0 -23.5 16.5 -43t47.5 -19.5t47 19.5t16 43t-16.5 43t-46.5 19.5q-31 0 -47.5 -19.5t-16.5 -43z" />
<glyph unicode="&#xe21;" horiz-adv-x="817" d="M82 576.5q0 48.5 31.5 87t95.5 38.5q59 0 92 -36.5t33 -90.5v-272q55 -4 102 -21.5t84 -41t64.5 -49t42.5 -46.5v547h84v-692h-84q2 29 -20.5 66.5t-62.5 72.5t-94.5 61.5t-115.5 32.5v-127q0 -53 -29 -85.5t-86 -32.5q-43 0 -72.5 22.5t-44 57t-13.5 75.5t18.5 76 t52.5 58.5t88 25.5v78v78q-14 -8 -39 -8q-63 0 -95 38.5t-32 87zM145 575.5q0 -24.5 16.5 -44t47.5 -19.5t47 19.5t16 44t-16 44t-47 19.5t-47.5 -19.5t-16.5 -44zM162 122q4 -28 18 -44q16 -23 42 -20t26 36v72v72q-35 0 -55.5 -18.5t-27.5 -44t-3 -53.5z" />
<glyph unicode="&#xe22;" horiz-adv-x="710" d="M66.5 543.5q11.5 64.5 57.5 114t116 49.5q57 0 87.5 -38t30.5 -82t-28.5 -82t-89.5 -38q-25 0 -42.5 6t-27.5 14.5t-15 13.5l-5 5q-2 -39 13 -65.5t38.5 -43t51.5 -23.5t50 -7h12v-78q-72 4 -106.5 -32t-34.5 -89v-68q0 -27 27 -26h254q41 0 52 12t11 47v559h86v-559 q0 -41 -7 -67.5t-23.5 -41t-45 -19.5t-73.5 -5h-295q-29 0 -49.5 20.5t-20.5 49.5v102q0 43 12.5 71.5t28.5 46t33.5 26t28.5 12.5q-80 27 -109 89t-17.5 126.5zM180 587.5q0 -22.5 14.5 -41t45.5 -18.5q29 0 43 18.5t14 41t-14.5 41t-42.5 18.5q-31 0 -45.5 -18.5 t-14.5 -41z" />
<glyph unicode="&#xe23;" horiz-adv-x="593" d="M21 522.5q2 14.5 10 32.5q8 25 26.5 51.5t45 49t61.5 37t78 14.5q51 0 89 -11.5t69.5 -21.5t60 -13.5t63.5 13.5l15 -62q-47 -18 -85 -16t-75 11t-73 19.5t-75 10.5q-29 0 -49 -10.5t-32.5 -23.5t-19.5 -24.5t-7 -13.5q59 -4 115 -14q47 -10 97 -25.5t85 -38.5 q31 -23 37 -47t6 -78v-260q0 -47 -31 -80.5t-94 -33.5t-95 39t-32 86t31.5 86t95.5 39q31 0 47 -9v125q0 41 -6 58.5t-45 40.5q-14 8 -50 17t-80 18.5t-92.5 14.5t-88.5 5q-4 0 -2 14.5zM274 113.5q0 -23.5 16.5 -43t47.5 -19.5t47 19.5t16 43t-16 43t-47 19.5t-47.5 -19.5 t-16.5 -43z" />
<glyph unicode="&#xe24;" horiz-adv-x="739" d="M43 545q35 43 82 80q41 31 99.5 56.5t133.5 25.5q57 0 107.5 -14.5t87.5 -42t58.5 -69.5t21.5 -100v-843h-84v843q0 74 -56.5 116t-134.5 42q-47 0 -100 -18.5t-94 -53.5q25 -6 49 -16q23 -10 47.5 -24.5t50.5 -37.5q-33 -8 -55 -26q-20 -16 -37.5 -43t-17.5 -72l-2 -119 q14 8 45 9q59 0 88.5 -39t29.5 -86t-29.5 -86t-88.5 -39q-55 0 -92 33.5t-37 93.5v229q0 72 26.5 100.5t55.5 40.5q-18 14 -41 27q-20 10 -49 19.5t-64 13.5zM176 113.5q0 -23.5 16.5 -43t47.5 -19.5t47 19.5t16 43t-16.5 43t-46.5 19.5q-31 0 -47.5 -19.5t-16.5 -43z" />
<glyph unicode="&#xe25;" horiz-adv-x="714" d="M59 571q12 20 37 44t59.5 44.5t81 34t99.5 13.5q57 0 107.5 -15.5t87 -44.5t57 -72t20.5 -98v-477h-86q2 16 -7 56t-26.5 90.5t-42 103.5t-54.5 96t-62.5 69.5t-65.5 22.5q-37 -4 -55.5 -29.5t-26.5 -58.5t-8 -67.5t4 -59.5q6 2 15 6q8 4 18 6.5t27 2.5q61 0 92.5 -39 t31.5 -84q0 -53 -32.5 -90t-91.5 -37q-63 0 -95 41t-37 88q-6 53 -8 101t0 71q4 86 39 148.5t115 72.5q68 8 116 -29t80.5 -86t50 -97t23.5 -60v118v121q0 80 -55 121t-135 41q-78 0 -131.5 -33t-85.5 -78zM174 112.5q0 -24.5 16.5 -44t47.5 -19.5q33 0 48 19.5t15 44 t-15.5 44t-47.5 19.5q-31 0 -47.5 -19.5t-16.5 -44z" />
<glyph unicode="&#xe26;" horiz-adv-x="825" d="M33 113q0 47 31.5 86t95.5 39q25 0 41 -9v115q0 72 25.5 100.5t54.5 40.5q-18 14 -41 27q-20 10 -49 19.5t-64 13.5q37 43 84 80q41 31 98.5 56.5t132.5 25.5q57 0 107.5 -14.5t88.5 -42t59.5 -69.5t21.5 -100v-843h-86v843q0 78 -56.5 118t-134.5 40q-47 0 -99 -18.5 t-93 -53.5l12 -4t33.5 -13t48.5 -23.5t51 -37.5q-33 -8 -55 -26q-23 -16 -39 -43t-16 -72v-237q0 -47 -31 -85t-94 -38t-95 39t-32 86zM96 113.5q0 -23.5 16.5 -43t47.5 -19.5t47 19.5t16 43t-16.5 43t-46.5 19.5q-31 0 -47.5 -19.5t-16.5 -43z" />
<glyph unicode="&#xe27;" horiz-adv-x="641" d="M37 565q31 51 97.5 96.5t158.5 45.5q111 0 181.5 -60.5t70.5 -169.5v-352q0 -23 -9.5 -47.5t-26.5 -45t-44 -32.5t-62 -12q-63 0 -95 39t-32 86t31 86t94 39q14 0 27 -2q23 -4 37 -11v252q0 80 -47 121t-125 41q-74 0 -127 -38t-78 -79zM338 113.5q0 -23.5 16 -43 t47 -19.5t47.5 19.5t16.5 43t-16.5 43t-47.5 19.5t-47 -19.5t-16 -43z" />
<glyph unicode="&#xe28;" horiz-adv-x="747" d="M51 463q0 61 25.5 108t67.5 78t95.5 46.5t108.5 15.5q84 0 139.5 -24.5t90.5 -57.5q2 0 20 32.5t31 73.5l78 -37q-10 -27 -23.5 -50t-28.5 -42q-16 -23 -32 -39q8 -20 14 -39.5t6 -54.5v-473h-86v463v23.5t-4 21.5q-18 -14 -37 -25q-35 -20 -61 -28q2 -8 4 -17 q4 -20 4 -30q0 -51 -37 -85t-90 -34q-23 0 -43.5 7t-32.5 19v-315h-86v227q-57 39 -90 99.5t-33 136.5zM129 459q0 -45 13.5 -83t39.5 -57v50q0 72 38 122t116 50q23 0 41 -6.5t29 -12.5q12 -8 20 -18q23 8 50.5 26.5t45.5 34.5q-20 20 -45 39q-23 16 -54.5 28.5t-74.5 12.5 q-29 0 -65.5 -8t-71.5 -29.5t-58.5 -57.5t-23.5 -91zM272 414.5q0 -23.5 16.5 -43t47.5 -19.5t47 19.5t16 43t-16 43t-47 19.5t-47.5 -19.5t-16.5 -43z" />
<glyph unicode="&#xe29;" horiz-adv-x="821" d="M43 576.5q0 48.5 31.5 87t93.5 38.5q59 0 92 -36.5t33 -90.5v-501h252q41 0 52 12t11 47v123q-25 -6 -67.5 -6t-85.5 14.5t-76 43t-35 79.5q0 16 5 35.5t17.5 36t34 28t54.5 11.5q49 0 75.5 -23.5t34.5 -54.5t0 -60.5t-28 -44.5q10 -2 22 -2h22.5t26.5 4v375h84v-344 q4 4 14.5 12.5t20.5 24.5t19.5 42t11.5 62h67q0 -53 -15 -88.5t-36.5 -58.5t-44 -37t-37.5 -24v-148q0 -41 -6 -67.5t-22.5 -41t-45 -19.5t-73.5 -5h-422v74h86v385q-14 -8 -41 -8q-61 0 -93 38.5t-32 87zM104 575.5q0 -24.5 16.5 -44t47.5 -19.5q33 0 48 19.5t15 44t-15 44 t-48 19.5q-31 0 -47.5 -19.5t-16.5 -44zM399 389.5q0 -20.5 13.5 -38t42.5 -17.5q27 0 41 17.5t14 38t-14.5 37.5t-40.5 17q-29 0 -42.5 -17t-13.5 -37.5z" />
<glyph unicode="&#xe2a;" horiz-adv-x="714" d="M59 571q12 20 37 44t59.5 44.5t81 34t99.5 13.5t93 -11.5t65 -23.5q29 -16 47 -35q6 12 14 27q14 29 23 75l77 -24q-10 -35 -22 -59.5t-23 -41.5q-12 -18 -26 -30q6 -10 12 -25q4 -12 8 -32.5t4 -49.5v-477h-86q2 16 -7 56t-26.5 90.5t-42 103.5t-54.5 96t-62.5 69.5 t-65.5 22.5q-37 -4 -55.5 -29.5t-26.5 -58.5t-8 -67.5t4 -59.5q6 2 15 6q8 4 18 6.5t27 2.5q61 0 92.5 -39t31.5 -84q0 -53 -32.5 -90t-91.5 -37q-63 0 -95 41t-37 88q-6 53 -8 101t0 71q4 86 39 148.5t115 72.5q27 4 47 -1t35 -9q16 -8 28 -15q47 20 80 46t52 42 q-16 18 -39 33q-20 12 -50 22.5t-73 10.5q-78 0 -131.5 -33t-85.5 -78zM174 112.5q0 -24.5 16.5 -44t47.5 -19.5q33 0 48 19.5t15 44t-15.5 44t-47.5 19.5q-31 0 -47.5 -19.5t-16.5 -44zM403 451q16 -16 37 -45q16 -25 38 -67t44 -101v239v23.5t-4 17.5q-16 -12 -35 -24 q-16 -10 -36.5 -22.5t-43.5 -20.5z" />
<glyph unicode="&#xe2b;" horiz-adv-x="821" d="M43 576.5q0 48.5 31.5 87t93.5 38.5q59 0 92 -36.5t33 -90.5v-315q23 53 58.5 92t70.5 68q39 33 84 57q-31 25 -41 63t0 73.5t41 62t84 26.5t84 -28.5t39 -67.5t-7.5 -79t-54.5 -60q16 -10 31 -29q12 -16 22.5 -42.5t10.5 -67.5v-328h-86v328q0 35 -9.5 55t-19.5 33 q-12 14 -27 22q-70 -35 -122 -86t-87.5 -107.5t-53 -113.5t-17.5 -104v-27h-84v459q-14 -8 -41 -8q-61 0 -93 38.5t-32 87zM104 575.5q0 -24.5 16.5 -44t47.5 -19.5q33 0 48 19.5t15 44t-15 44t-48 19.5q-31 0 -47.5 -19.5t-16.5 -44zM526 576.5q0 -23.5 16.5 -43 t47.5 -19.5t47 19.5t16 43t-16 43t-47 19.5t-47.5 -19.5t-16.5 -43z" />
<glyph unicode="&#xe2c;" horiz-adv-x="884" d="M43 576.5q0 48.5 31.5 87t93.5 38.5q59 0 92 -36.5t33 -90.5v-27v-65v-85v-85v-65v-27l205 443l194 -443v357q-66 -6 -96.5 30.5t-30.5 83.5t32 77t83 30t82 -37t24 -82q16 10 31 25q12 12 24.5 29.5t20.5 43.5l62 -35q-12 -33 -32 -58.5t-41.5 -43.5t-40.5 -29.5 t-32 -15.5v-596h-86v8t-1 21.5t-3 29t-8 27.5l-182 403l-187 -403q-6 -12 -10 -27.5t-6 -27.5q-2 -16 -2 -31h-84v459q-14 -8 -41 -8q-61 0 -93 38.5t-32 87zM104 575.5q0 -24.5 16.5 -44t47.5 -19.5q33 0 48 19.5t15 44t-15 44t-48 19.5q-31 0 -47.5 -19.5t-16.5 -44z M623 690.5q0 -20.5 13 -37t40 -16.5t40 16.5t13 37t-13.5 36.5t-39.5 16q-27 0 -40 -16t-13 -36.5z" />
<glyph unicode="&#xe2d;" horiz-adv-x="731" d="M78 578q12 20 36.5 43.5t59.5 44t80 34t98 13.5q57 0 107.5 -15.5t87.5 -44t57.5 -71.5t20.5 -99v-350q0 -41 -6.5 -67.5t-22.5 -41t-45 -19.5t-74 -5h-213q-45 0 -73.5 5t-46 19.5t-23.5 41t-6 67.5v238q0 14 5 35.5t19.5 42t39 35t65.5 14.5q61 0 92 -39t31 -86 t-31 -86t-92 -39q-14 0 -22.5 2t-20.5 6v-123q0 -35 11 -47t52 -12h213q41 0 52.5 12t11.5 47v350q0 80 -56.5 120t-134.5 42t-132 -31.5t-87 -78.5zM176 371.5q0 -23.5 16.5 -43t47.5 -19.5t47 19.5t16 43t-16.5 43t-46.5 19.5q-31 0 -47.5 -19.5t-16.5 -43z" />
<glyph unicode="&#xe2e;" horiz-adv-x="731" d="M90 584q0 35 23.5 59.5t60.5 39.5t79 22.5t79 7.5q63 0 109 -12.5t77 -26.5q37 -18 60 -39q18 16 36.5 37.5t36.5 44.5l60 -47q-16 -25 -32.5 -43.5t-31.5 -30.5q-16 -14 -31 -25q8 -6 9 -24v-414q0 -41 -6.5 -67.5t-22.5 -41t-45 -19.5t-74 -5h-213q-45 0 -73.5 5 t-46 19.5t-23.5 41t-6 67.5v176q0 14 5 36t19.5 42.5t39 34.5t65.5 14q61 0 92 -39t31 -87t-31 -87t-92 -39q-14 0 -22.5 3t-20.5 8v-62q0 -35 11 -47t52 -12h213q41 0 52.5 12t11.5 47v387q-10 -10 -33 -18t-51.5 -16.5t-61.5 -12.5t-63 -4q-41 0 -83 7t-78 20.5t-58.5 35 t-22.5 52.5zM174 590q0 -16 15.5 -26.5t39 -15.5t51 -7t52.5 -2q45 0 79.5 6t59.5 16q28 9 51 23q-18 18 -45 32q-23 12 -58.5 22.5t-86.5 10.5q-23 0 -50.5 -3t-51 -10t-40 -18.5t-16.5 -27.5zM176 310.5q0 -23.5 16.5 -43t47.5 -19.5t47 19.5t16 43t-16.5 43t-46.5 19.5 q-31 0 -47.5 -19.5t-16.5 -43z" />
<glyph unicode="&#xe2f;" horiz-adv-x="700" d="M67 526.5q-1 42.5 12 82.5t44 69t86 29q63 0 94 -39t30 -85t-31 -85t-85 -39q-18 0 -30.5 2t-20.5 6t-16 10q10 -33 43.5 -61.5t87.5 -28.5q45 0 83.5 26.5t67.5 70.5t44.5 98.5t12.5 109.5h84v-475q0 -104 -50 -159.5t-165 -84.5l-22 78q47 12 76.5 25.5t47 33t23.5 47 t6 68.5v230q-31 -78 -91 -112t-124.5 -30t-120 41t-75.5 101q-10 29 -11 71.5zM152 580.5q0 -23.5 15 -43t46 -19.5t46 19.5t15 43t-15 43t-46 19.5t-46 -19.5t-15 -43z" />
<glyph unicode="&#xe30;" horiz-adv-x="565" d="M42 128q-3 48 30.5 87t91.5 37q47 -2 75.5 -22.5t39 -49t6.5 -59.5t-21 -53q43 4 74 20q29 16 49.5 50t15.5 100h86q4 -117 -66.5 -177.5t-193.5 -60.5q-96 0 -140 40t-47 88zM42 583q-3 48 30.5 87t91.5 37q66 -4 94.5 -39t28.5 -76q0 -37 -23 -70q43 4 74 21 q29 16 49.5 50t15.5 99h86q4 -119 -66.5 -178t-193.5 -59q-96 0 -140 40t-47 88zM104 137.5q0 -22.5 15.5 -41t44.5 -18.5q31 0 45 18.5t14 41t-14 41t-45 18.5q-29 0 -44.5 -18.5t-15.5 -41zM104 591.5q0 -22.5 15.5 -41t44.5 -18.5t44 18.5t15 41.5t-15 41t-44 18 t-44.5 -18.5t-15.5 -41z" />
<glyph unicode="&#xe31;" d="M-483 1014q4 24 17 44.5t35.5 35t55.5 18.5q49 4 82 -19.5t45 -58.5t2 -72.5t-47 -62.5q25 -6 49.5 -9t50.5 1q92 10 162 68.5t86 146.5l76 -27q-10 -45 -39 -89t-70.5 -81t-95 -60.5t-112.5 -27.5q-68 -6 -130.5 12.5t-115.5 53.5q-16 14 -29.5 32.5t-19.5 45.5 q-6 25 -2 49zM-424 987.5q2 -22.5 18.5 -40t47.5 -13.5q29 2 41 21.5t10 42t-18.5 40t-45.5 15.5t-42 -22.5t-11 -43z" />
<glyph unicode="&#xe32;" horiz-adv-x="604" d="M27 553q14 31 34.5 58.5t48 49t64.5 34t88 12.5q102 0 169 -53.5t67 -151.5v-502h-84v506q0 68 -43 102.5t-109 34.5q-63 0 -106 -34t-66 -87z" />
<glyph unicode="&#xe33;" horiz-adv-x="604" d="M-276 946q0 47 31.5 86t94.5 39t94 -39t31 -86t-31 -86t-94 -39t-94.5 39t-31.5 86zM-215 945.5q0 -23.5 16 -44t49 -20.5t48.5 20.5t15.5 44t-15.5 44t-48.5 20.5t-49 -20.5t-16 -44zM27 553q14 31 34.5 58.5t48 49t64.5 34t88 12.5q102 0 169 -53.5t67 -151.5v-502h-84 v506q0 68 -43 102.5t-109 34.5q-63 0 -106 -34t-66 -87z" />
<glyph unicode="&#xe34;" d="M-657 854q10 51 39.5 96t72.5 78t93.5 49.5t103.5 9.5q80 -10 128 -46.5t75.5 -81t39 -89t17.5 -71.5q-41 14 -84 26q-37 10 -82 21.5t-92 15.5q-57 6 -111.5 6t-99.5 -4q-53 -4 -100 -10zM-551 922q29 4 62 6q29 2 61.5 2t67.5 -4q47 -4 82.5 -13.5t58.5 -17.5 q27 -11 43 -21q-8 18 -20.5 42t-33 45.5t-53 39t-82.5 23.5q-31 4 -60.5 -4t-55 -23.5t-45 -36t-25.5 -38.5z" />
<glyph unicode="&#xe35;" d="M-655 854q10 51 39.5 96t72.5 78t93.5 49.5t103.5 9.5q53 -8 91 -26.5t67 -44.5v153h77v-276q10 -29 15.5 -53.5t9.5 -40.5q-41 14 -84 26q-37 10 -82 21.5t-92 15.5q-57 6 -111.5 6t-99.5 -4q-53 -4 -100 -10zM-549 922q29 4 62 6q29 2 61.5 2t67.5 -4q47 -4 82.5 -13.5 t58.5 -17.5q27 -11 43 -21q-8 18 -20.5 42t-33 45.5t-53 39t-81.5 23.5q-31 4 -61 -4t-55.5 -23.5t-45 -36t-25.5 -38.5z" />
<glyph unicode="&#xe36;" d="M-655 854q10 51 39.5 96t72.5 78t93.5 49.5t103.5 9.5q14 -2 25.5 -4t23.5 -6q0 35 28.5 68t80.5 33q55 0 82.5 -33t27.5 -78q0 -39 -19.5 -67.5t-47.5 -36.5q29 -45 41 -90.5t18 -73.5q-41 14 -84 26q-37 10 -82 21.5t-92 15.5q-57 6 -111.5 6t-99.5 -4q-53 -4 -100 -10 zM-549 922q29 4 62 6q29 2 61.5 2t67.5 -4q47 -4 82.5 -13.5t58.5 -17.5q27 -11 43 -21q-8 18 -20.5 42t-33 45.5t-53 39t-81.5 23.5q-31 4 -61 -4t-55.5 -23.5t-45 -36t-25.5 -38.5zM-238 1071.5q0 -18.5 13.5 -35t38.5 -16.5t38 16.5t13 35t-13.5 34.5t-37.5 16 q-25 0 -38.5 -16t-13.5 -34.5z" />
<glyph unicode="&#xe37;" d="M-655 854q10 51 39.5 96t72.5 78t93.5 49.5t103.5 9.5h6v82h76v-104q23 -10 41 -22.5t35 -26.5v153h77v-276q10 -29 15.5 -53.5t9.5 -40.5q-41 14 -84 26q-37 10 -82 21.5t-92 15.5q-57 6 -111.5 6t-99.5 -4q-53 -4 -100 -10zM-549 922q29 4 62 6q29 2 61.5 2t67.5 -4 q47 -4 82.5 -13.5t58.5 -17.5q27 -11 43 -21q-8 18 -20.5 42t-33 45.5t-53 39t-81.5 23.5q-31 4 -61 -4t-55.5 -23.5t-45 -36t-25.5 -38.5z" />
<glyph unicode="&#xe38;" d="M-344 -215q0 45 29.5 82t89.5 37q49 0 84 -30t35 -87v-287h-82v170q-10 -2 -18.5 -3t-20.5 -1q-57 0 -87 37t-30 82zM-285 -216.5q0 -23.5 14.5 -41.5t45.5 -18t45 18t14 41.5t-14.5 42t-44.5 18.5q-31 0 -45.5 -18.5t-14.5 -42z" />
<glyph unicode="&#xe39;" d="M-526 -215q0 45 29.5 82t88.5 37q51 0 86 -30t35 -87v-94q0 -35 -1 -64.5t1 -29.5q0 -23 14.5 -36.5t36.5 -13.5q18 0 33 13.5t15 36.5v297h82v-297q0 -55 -40 -85t-92 -30q-49 0 -90 29.5t-41 85.5v71q-10 -2 -14 -3t-27 -1q-57 0 -86.5 37t-29.5 82zM-467 -216.5 q0 -23.5 14 -41.5t45 -18t46.5 18t15.5 41.5t-15.5 42t-46.5 18.5t-45 -18.5t-14 -42z" />
<glyph unicode="&#xe3a;" d="M-213 -191.5q0 23.5 16.5 44t46.5 20.5q33 0 48.5 -20.5t15.5 -44t-15.5 -44t-48.5 -20.5q-31 0 -47 20.5t-16 44z" />
<glyph unicode="&#xe3e;" />
<glyph unicode="&#xe3f;" horiz-adv-x="796" d="M94 0v870h234v109h71v-109h76q27 0 67 -11t76.5 -36.5t62.5 -68.5t26 -107q0 -61 -29 -111.5t-82 -74.5q8 -4 32.5 -15.5t50.5 -34t45 -61.5t19 -100q0 -68 -25.5 -116t-61 -77.5t-72.5 -43t-60 -13.5h-125v-150h-71v150h-234zM207 100h121v297h-121v-297zM207 498h121 v274h-121v-274zM399 100h88q41 0 70 14.5t46.5 38t24.5 51t7 52.5q0 45 -15.5 71.5t-42 42t-59.5 21.5t-69 6h-50v-297zM399 498h47q45 2 74 14t45.5 30.5t22.5 41.5t6 43q0 18 -6 42.5t-26.5 48t-59.5 39t-103 15.5v-274z" />
<glyph unicode="&#xe40;" horiz-adv-x="407" d="M115 111v581h86v-459q10 2 19.5 3.5t23.5 1.5q59 0 90 -39t31 -86t-31 -86t-94 -39q-53 0 -89 31.5t-36 91.5zM176 113.5q0 -23.5 16.5 -43t47.5 -19.5t47 19.5t16 43t-16.5 43t-46.5 19.5q-31 0 -47.5 -19.5t-16.5 -43z" />
<glyph unicode="&#xe41;" horiz-adv-x="735" d="M115 111v581h86v-459q10 2 19.5 3.5t23.5 1.5q59 0 90 -39t31 -86t-31 -86t-94 -39q-53 0 -89 31.5t-36 91.5zM176 113.5q0 -23.5 16.5 -43t47.5 -19.5t47 19.5t16 43t-16.5 43t-46.5 19.5q-31 0 -47.5 -19.5t-16.5 -43zM442 111v581h86v-459q10 2 19.5 3.5t21.5 1.5 q61 0 92 -39t31 -86t-30.5 -86t-94.5 -39q-53 0 -89 31.5t-36 91.5zM504 113.5q0 -23.5 16 -43t47 -19.5t47.5 19.5t16.5 43t-16.5 43t-47.5 19.5t-47 -19.5t-16 -43z" />
<glyph unicode="&#xe42;" horiz-adv-x="438" d="M-59 1071q27 31 61 55q29 20 69 38t87 18q41 0 72.5 -13.5t60 -24.5t57.5 -12.5t66 23.5l32 -59q-47 -35 -84.5 -38t-71.5 8t-67 26.5t-65 15.5q-20 0 -34.5 -4t-25.5 -8q-12 -6 -22 -13q45 -23 78.5 -40t56 -40.5t34 -56.5t11.5 -84v-629q10 2 15 3.5t26 1.5 q61 0 92 -39t31 -86t-31 -86t-94 -39q-53 0 -89 31.5t-36 91.5v372v375q0 37 -4 60.5t-25.5 45t-68.5 46t-131 61.5zM231 113.5q0 -23.5 16.5 -43t47.5 -19.5t47 19.5t16 43t-16 43t-47 19.5t-47.5 -19.5t-16.5 -43z" />
<glyph unicode="&#xe43;" horiz-adv-x="438" d="M-67 1034q4 43 23 77t53 54.5t83 20.5q72 0 118 -41t46 -121v-791q10 2 15.5 3.5t25.5 1.5q61 0 92 -39t31 -86t-31 -86t-94 -39q-53 0 -89 31.5t-36 91.5v915q0 35 -14.5 67.5t-61.5 32.5q-25 0 -39 -8t-21 -17t-9 -17l-2 -9q53 4 81.5 -25.5t28.5 -72.5 q0 -47 -26.5 -70.5t-60.5 -26.5t-65.5 13t-39.5 53q-12 45 -8 88zM-16 976.5q0 -18.5 13 -33.5t38 -15t37 15t12 33.5t-12.5 34t-36.5 15.5q-25 0 -38 -15.5t-13 -34zM231 113.5q0 -23.5 16.5 -43t47.5 -19.5t47 19.5t16 43t-16 43t-47 19.5t-47.5 -19.5t-16.5 -43z" />
<glyph unicode="&#xe44;" horiz-adv-x="509" d="M-59 1139l41 47q29 -10 40 -31.5t17 -46.5l61 -234l62 238q10 35 33.5 52.5t52.5 17.5q35 0 57.5 -22.5t22.5 -67.5v-859q10 2 15 3.5t28 1.5q61 0 92 -39t31 -86t-31 -86t-94 -39q-53 0 -89 31.5t-36 91.5v976q0 16 -7.5 15.5t-11.5 -10.5l-75 -261q-6 -23 -17.5 -37 t-34.5 -14t-34 15.5t-17 40.5l-70 251q-4 18 -11 32t-25 20zM303 113.5q0 -23.5 16.5 -43t49.5 -19.5q31 0 47 19.5t16 43t-16.5 43t-46.5 19.5q-33 0 -49.5 -19.5t-16.5 -43z" />
<glyph unicode="&#xe45;" horiz-adv-x="604" d="M27 553q14 31 34.5 58.5t48 49t64.5 34t88 12.5q102 0 169 -53.5t67 -151.5v-864h-84v868q0 68 -43 102.5t-109 34.5q-63 0 -106 -34t-66 -87z" />
<glyph unicode="&#xe46;" horiz-adv-x="727" d="M106 498q0 78 45.5 135t116.5 74q27 -14 47 -25q8 -4 16.5 -9t14.5 -9q8 -6 14 -9q0 -2 12.5 6.5t28.5 18.5q18 10 41 27q90 -20 124 -72.5t34 -132.5v-541q0 -104 -53 -160.5t-164 -81.5l-23 76q47 12 77 25.5t47.5 33t23.5 47t6 68.5v520q0 25 -1 45.5t-7 38t-20.5 33 t-43.5 27.5l-82 -49l-96 49q-47 -18 -67.5 -58t-18.5 -94l6 5q6 6 18.5 13t29 13t36.5 6q57 0 85 -34.5t27 -78t-29.5 -78t-82.5 -34.5q-80 0 -121 60.5t-41 144.5zM213 407.5q0 -20.5 13 -38t42 -17.5q27 0 41.5 17.5t14.5 38t-14.5 38t-41.5 17.5q-29 0 -42 -17.5t-13 -38 z" />
<glyph unicode="&#xe47;" d="M-587 969q-3 35 9 65q23 57 80.5 74.5t143.5 7.5q47 -4 87 -5t67.5 7t41 28.5t8.5 57.5h68q6 -98 -64.5 -131t-230.5 -16q-29 2 -60.5 0t-54 -15.5t-27.5 -43t17 -78.5q8 16 23 30q12 10 29.5 20.5t46.5 10.5q23 0 40 -7t33 -18q16 -10 33 -24q10 31 33.5 51.5t60.5 20.5 q49 0 73 -31t24 -67t-25 -65.5t-72 -27.5q-33 2 -59.5 18.5t-50 36t-46 35t-44.5 12.5q-29 -4 -44.5 -20t-25.5 -37q-10 -23 -14 -51q-25 12 -46.5 37.5t-36 57.5t-17.5 67zM-250 910.5q0 -17.5 11 -33t36 -15.5t36 15.5t11 33t-11 32.5t-36 15t-36 -15t-11 -32.5z" />
<glyph unicode="&#xe48;" d="M-188 1264v237h77v-237h-77z" />
<glyph unicode="&#xe49;" d="M-424 1413q0 43 29.5 73t77.5 30q55 0 82.5 -33t27.5 -74q0 -35 -9 -61.5t-20 -47.5q-12 -23 -28 -40q49 2 92 22.5t74.5 54t50 77.5t18.5 93h76q0 -63 -24.5 -119.5t-65.5 -97.5t-96.5 -65.5t-118.5 -24.5q-72 0 -127 14q18 10 35 27q14 14 27.5 32.5t21.5 43.5 q-6 -4 -14 -4q-14 -2 -39 4q-29 8 -49.5 31.5t-20.5 64.5zM-367 1413.5q0 -18.5 12.5 -34t37.5 -15.5t37 15.5t12 34t-12.5 33.5t-36.5 15q-25 0 -37.5 -15t-12.5 -33.5z" />
<glyph unicode="&#xe4a;" d="M-397 1364q4 49 29.5 86t80.5 37q18 0 31.5 -5t24.5 -12l20 -16q8 8 18 16q10 6 22.5 11.5t31.5 5.5q51 0 72.5 -35t21.5 -88q0 -39 -8 -56.5t-19 -31.5q14 8 29 16q29 18 45 43q16 29 21.5 62t-5.5 73l66 3q4 -33 -3 -82.5t-36 -90.5q-25 -35 -59.5 -50t-67.5 -21 q-37 -8 -78 -4q10 16 33 44.5t27 82.5q2 23 -5.5 52.5t-46.5 29.5q-14 0 -23 -6.5t-18 -14.5q-8 -8 -14 -18q-6 10 -16 18t-23.5 14.5t-32.5 6.5q-27 0 -41 -17.5t-14 -46.5q6 2 15 6q6 2 14 4t18 2q37 0 58.5 -23.5t21.5 -62.5q0 -29 -22.5 -53t-57.5 -22q-53 2 -83.5 46 t-26.5 97zM-332 1300.5q0 -16.5 11 -31t34 -14.5t34 14.5t11 31t-11 31t-34 14.5t-34 -14.5t-11 -31z" />
<glyph unicode="&#xe4b;" d="M-315 1327v68h127v102h77v-102h129v-68h-129v-102h-77v102h-127z" />
<glyph unicode="&#xe4c;" d="M-285 1343q10 90 99 113q37 8 76.5 4t73.5 -7t57.5 6t29.5 46l58 -10q-6 -47 -36 -66.5t-55 -23.5q-39 -6 -76.5 0t-70.5 7t-58.5 -9t-39.5 -47q6 8 16 16q10 6 23.5 11.5t33.5 0.5q43 -6 60.5 -36.5t12.5 -64.5t-31.5 -58.5t-71.5 -18.5q-53 6 -79 49t-22 88z M-209 1303.5q-2 -15.5 5 -29.5t28 -17q20 -4 32.5 7.5t15.5 27t-5.5 29.5t-28.5 18q-20 2 -32.5 -9t-14.5 -26.5z" />
<glyph unicode="&#xe4d;" d="M-276 946q0 47 31.5 86t94.5 39t94 -39t31 -86t-31 -86t-94 -39t-94.5 39t-31.5 86zM-219 945.5q0 -25.5 17 -47t52 -21.5t52.5 21.5t17.5 47t-17.5 47t-52.5 21.5t-52 -21.5t-17 -47z" />
<glyph unicode="&#xe4e;" d="M-254 991q2 25 13.5 42.5t15.5 25.5q-4 6 -13.5 24.5t-7.5 42.5q4 51 39 83t94 28l-4 -74q-27 4 -45 -5t-20 -36q-2 -16 3 -29.5t11 -21.5q8 -10 16 -16q-10 -8 -18 -17q-8 -8 -14 -20t-6 -29q-2 -29 16 -38t45 -11l-4 -70q-55 4 -89 38t-32 83z" />
<glyph unicode="&#xe4f;" horiz-adv-x="870" d="M90 346q0 72 27.5 134.5t75 109.5t110 74.5t133.5 27.5q72 0 134.5 -27.5t109.5 -74.5t74.5 -109.5t27.5 -134.5t-27.5 -134t-74.5 -109.5t-109.5 -75t-134.5 -27.5t-134 27.5t-109.5 75t-75 109.5t-27.5 134zM145 346q0 -59 22.5 -112.5t62.5 -92.5t93.5 -61.5 t112.5 -22.5t112.5 22.5t92.5 61.5t61.5 92.5t22.5 112.5t-22.5 112.5t-61.5 93.5t-92 62.5t-113 22.5q-59 0 -112.5 -22.5t-93.5 -62.5t-62.5 -93t-22.5 -113zM254 346q0 76 53 129t129 53t129 -53t53 -129t-53 -129t-129 -53t-129 53t-53 129zM297 346q0 -57 41 -97 t98 -40t97 40t40 97t-39.5 98t-97.5 41q-57 0 -98 -41t-41 -98z" />
<glyph unicode="&#xe50;" horiz-adv-x="757" d="M67 255q-1 71 34.5 131t105 101t176.5 41q104 0 175 -41t105.5 -101t34.5 -131t-34.5 -131.5t-105.5 -101t-175 -40.5t-175 40.5t-105.5 101t-35.5 131.5zM156 255q0 -50 24.5 -94t74.5 -73t126 -29t126 29t75.5 73t25.5 94t-25.5 94t-75.5 73t-126 29t-126 -29 t-74.5 -73t-24.5 -94z" />
<glyph unicode="&#xe51;" horiz-adv-x="757" d="M68 248q-4 57 19.5 107.5t65.5 87t96 58t113 19.5q145 -4 230.5 -84t89.5 -219q2 -98 -44 -164.5t-110 -120.5l-49 43q20 18 42 42t40.5 54.5t29.5 66.5t11 79q0 98 -61.5 162.5t-178.5 64.5q-94 0 -152 -54t-63 -142q-2 -57 34 -104.5t91 -55.5q14 0 40 3t50 18 q-37 2 -65 12q-25 10 -46.5 31.5t-23.5 64.5q-4 63 37 98t98 35q76 0 109 -41t33 -100q0 -86 -59.5 -141.5t-147.5 -55.5q-100 0 -161.5 62.5t-67.5 173.5zM297 229.5q0 -24.5 16 -45t49 -20.5t49.5 20.5t16.5 45t-16.5 45t-49.5 20.5t-49 -20.5t-16 -45z" />
<glyph unicode="&#xe52;" horiz-adv-x="849" d="M45 682l72 57q66 -37 65 -135v-391q0 -66 30 -100.5t110 -34.5h288q59 0 77 21.5t18 62.5v178q0 33 -12.5 61.5t-51.5 28.5q-25 0 -44 -14.5t-32.5 -30.5t-19.5 -31l-6 -14q-14 25 -33 45q-16 16 -38 30.5t-48 14.5q-39 0 -61.5 -19.5t-32.5 -43.5q4 4 12 8q16 8 39 8 q59 0 89 -37t30 -82t-30 -82t-89 -37t-99 39t-40 105q0 100 52 156.5t126 56.5q31 0 53.5 -10.5t38.5 -20.5q18 -12 31 -29l4 10q4 11 17 22t35.5 21.5t57.5 10.5q39 0 64.5 -15.5t41 -37t22.5 -45t7 -41.5v-205q0 -80 -35.5 -121t-142.5 -41h-284q-133 0 -181.5 54.5 t-48.5 162.5v344q0 39 -8 73t-43 48zM317 264.5q0 -22.5 14.5 -41t45.5 -18.5t45 18.5t14 41t-14 41t-45 18.5t-45.5 -18.5t-14.5 -41z" />
<glyph unicode="&#xe53;" horiz-adv-x="849" d="M78 272q0 47 13 91.5t40 79t64.5 55t85.5 20.5q45 0 76.5 -16.5t52 -37t28.5 -35.5l8 -15q10 29 31 51q16 20 42 36.5t65 16.5q57 0 94 -25.5t59.5 -65.5t30.5 -91.5t6 -102.5q-4 -96 -19.5 -150t-31.5 -83h-94q14 16 27.5 56t20.5 89.5t8 101.5t-9 96t-32.5 71.5 t-59.5 27.5q-49 0 -67.5 -42t-18.5 -93v-307h-90v307q0 51 -29 93t-94 42q-41 0 -64.5 -19.5t-36 -50t-15.5 -68.5t-3 -75q8 4 18 11q10 4 23.5 8t30.5 4q61 0 92.5 -41t29.5 -89t-34.5 -89t-100.5 -41q-78 0 -112.5 69.5t-34.5 210.5zM174 128q0 -24 15 -42t44 -18 q31 0 45.5 18t14.5 42t-14.5 42t-45.5 18q-29 0 -44 -18t-15 -42z" />
<glyph unicode="&#xe54;" horiz-adv-x="849" d="M47 260q0 59 28.5 107.5t78 80t118 45t148.5 5.5q88 -10 147.5 -5t97 36.5t57 94t26.5 167.5q6 -2 14 -3q6 -2 13 -2t18 -2q20 -4 45 -6q0 -12 -4.5 -51t-17.5 -87t-37.5 -97t-63.5 -80q-39 -29 -78 -39t-80 -10t-83 5t-87 7q-49 2 -94 -7t-80 -29.5t-56.5 -55.5 t-21.5 -86q0 -106 82 -143t219 -15q-14 4 -28 12q-12 6 -27.5 13.5t-32.5 17.5q-29 16 -55.5 44t-26.5 75q0 45 36 82t97 37q63 0 93 -39t30 -80q0 -29 -10 -47.5t-20 -28.5q-12 -12 -29 -18q41 -31 72.5 -37t62.5 -9t65.5 -10.5t84.5 -38.5l-35 -71q-18 20 -59.5 27.5 t-88.5 7.5q-39 0 -66.5 -5.5t-54 -9.5t-58.5 -8t-77 -4q-49 0 -96 15.5t-84 48t-59.5 81t-22.5 115.5zM344 251.5q0 -20.5 13 -37.5t42 -17q27 0 41.5 17t14.5 37.5t-14.5 38t-41.5 17.5q-29 0 -42 -17.5t-13 -38z" />
<glyph unicode="&#xe55;" horiz-adv-x="849" d="M47 260q0 61 25.5 104.5t62.5 71t81 43t81 19.5l-8 20t-6 22.5t-2 28.5q0 51 35.5 85t86.5 34q53 -2 88 -34.5t35 -84.5q0 -20 -3 -33.5t-7 -23.5l-10 -20q49 -2 91 5t73.5 37.5t52 91t25.5 165.5q6 -2 14 -3q6 -2 13 -2t18 -2q20 -4 45 -6q0 -12 -4.5 -51t-17.5 -87 t-37.5 -97t-63.5 -80q-39 -29 -78 -39t-80 -10t-83 5t-87 7q-49 2 -94 -7t-80 -29.5t-56.5 -55.5t-21.5 -86q0 -106 82 -143t219 -15q-14 4 -28 12q-12 6 -27.5 13.5t-32.5 17.5q-29 16 -55.5 44t-26.5 75q0 45 36 82t97 37q63 0 93 -39t30 -80q0 -29 -10 -47.5t-20 -28.5 q-12 -12 -29 -18q41 -31 72.5 -37t62.5 -9t65.5 -10.5t84.5 -38.5l-35 -71q-18 20 -59.5 27.5t-88.5 7.5q-39 0 -66.5 -5.5t-54 -9.5t-58.5 -8t-77 -4q-49 0 -96 15.5t-84 48t-59.5 81t-22.5 115.5zM344 251.5q0 -20.5 13 -37.5t42 -17q27 0 41.5 17t14.5 37.5t-14.5 38 t-41.5 17.5q-29 0 -42 -17.5t-13 -38zM348 563.5q0 -20.5 13 -38t40 -17.5t41.5 17.5t14.5 38t-14.5 37.5t-41.5 17t-40 -17t-13 -37.5z" />
<glyph unicode="&#xe56;" horiz-adv-x="722" d="M55 743l68 35q14 -20 32.5 -66t34.5 -96q20 -57 39 -122q94 39 169 33.5t126 -40t78 -93t27 -126.5q0 -78 -28 -131t-68.5 -86t-92 -46t-96.5 -13q-35 0 -70.5 12t-65.5 34.5t-49.5 56.5t-19.5 75q0 51 36 85t87 34q66 0 97.5 -38t31.5 -85q0 -23 -6 -39t-14 -27 q-8 -12 -19 -22q45 -2 80 12t58.5 41t36 61.5t12.5 75.5t-15.5 76t-43 58.5t-64.5 35t-80 4.5q-31 -4 -61.5 -15t-53 -23.5t-37.5 -20.5l-14 -8q-2 39 -12.5 90t-26.5 102t-36.5 98.5t-39.5 77.5zM207 165.5q0 -20.5 13 -37.5t42 -17q27 0 41 17t14 37.5t-14 38t-41 17.5 q-29 0 -42 -17.5t-13 -38z" />
<glyph unicode="&#xe57;" horiz-adv-x="849" d="M49 260q0 45 14.5 86t40 72t60.5 49t76 18q35 0 58.5 -11t37.5 -23q16 -14 26 -33l6 10q7 10 21 23.5t37 23.5t55 10q45 0 75 -17t48.5 -46t25.5 -64.5t5 -72.5q-2 -41 -12.5 -78t-22.5 -64q-14 -33 -33 -57q66 12 97.5 56t42 105.5t8.5 134.5t-2 142.5t10 130t47 99.5 l70 -43q-31 -31 -41.5 -78t-11.5 -103.5t1.5 -118t-3 -121t-24 -113.5t-59.5 -95q-20 -20 -45.5 -36.5t-51 -27t-47 -17.5t-34.5 -9l-55 59q25 31 49.5 91.5t32.5 121t-6.5 105.5t-63.5 45q-23 0 -38 -13.5t-25 -32t-15.5 -39t-5.5 -36.5h-67q0 16 -6.5 36.5t-17.5 39 t-27.5 32t-38.5 13.5q-41 0 -64.5 -27t-34 -64.5t-9.5 -77.5t11 -67q8 14 21 25q10 10 27.5 18t44.5 8q59 0 87.5 -36.5t26.5 -81.5t-33.5 -82t-93.5 -37q-41 0 -72.5 23.5t-54 61.5t-35 86t-12.5 97zM178 112.5q0 -20.5 13 -38t42 -17.5q27 0 41.5 17.5t14.5 38t-14.5 38 t-41.5 17.5q-29 0 -42 -17.5t-13 -38z" />
<glyph unicode="&#xe58;" horiz-adv-x="849" d="M78 264q8 68 38.5 114t78 72.5t109 35t130.5 -0.5q53 -8 102.5 -14t87.5 -3t62.5 19.5t28.5 57.5q2 29 3 60.5t-1 60t-6 52t-9 36.5h84q4 -8 7.5 -34t4.5 -57.5t0 -62.5t-1 -51q-2 -66 -30 -100.5t-73 -47t-104.5 -9.5t-122.5 16q-49 8 -97 7t-88 -14.5t-71 -40 t-45 -67.5q-8 -25 -6 -54.5t10 -56t21.5 -49t25.5 -31.5q-4 33 0 62q4 25 15.5 47t39.5 31q25 6 46.5 -1.5t40 -20.5t35 -29.5l28.5 -28.5q31 -33 53.5 -53.5t38.5 -33t30.5 -16.5t30.5 -4q39 0 66 20.5t31 65.5q-6 -12 -15 -20q-18 -18 -57 -19q-45 0 -82 29t-37 86 q0 51 34 85t85 34q66 0 107 -52.5t41 -125.5q0 -80 -45.5 -125t-122.5 -45q-55 0 -106.5 27.5t-121.5 111.5q-31 35 -47 29t-20 -32t4 -62.5t26 -61.5h-102q-12 12 -37.5 35.5t-49.5 58.5t-39 78t-9 92zM549 217.5q0 -20.5 13 -38t42 -17.5q27 0 41 17.5t14 38t-14 37.5 t-41 17q-29 0 -42 -17t-13 -37.5z" />
<glyph unicode="&#xe59;" horiz-adv-x="768" d="M57.5 264q1.5 47 19 87t50.5 72t82 50q53 18 96 12t74 -21t47 -30l16 -16q-2 45 15.5 61.5t39 17.5t43 -8.5t29.5 -15.5q14 -12 28.5 -18t26 -1t17.5 22.5t6 53.5q0 45 -6 86t-14.5 72t-15.5 48l-7 18h86q8 -25 17 -52q12 -48 16 -124q4 -84 -12.5 -143.5t-77.5 -61.5 q-18 0 -33.5 8t-30 16.5t-26 14.5t-19.5 4q-10 -4 -13 -16.5t-2 -28t6 -29.5t9 -23l162 -292l-82 -35l-174 327q-18 37 -51 58.5t-68 28t-70.5 -4t-60.5 -39.5q-29 -33 -39 -71.5t-5 -75.5t22.5 -66.5t42.5 -42.5q-2 2 -4 9q-2 4 -3 12t3 23q6 35 33.5 66.5t84.5 31.5 q51 0 85 -30t38 -77q8 -70 -31.5 -111.5t-103.5 -41.5q-33 0 -69.5 11t-70.5 34.5t-60.5 57.5t-36.5 79q-10 47 -8.5 94zM260 124.5q0 -20.5 13 -37.5t42 -17q27 0 41.5 17t14.5 37.5t-14.5 38t-41.5 17.5q-29 0 -42 -17.5t-13 -38z" />
<glyph unicode="&#xe5a;" horiz-adv-x="901" d="M67 526.5q-1 42.5 12 82.5t44 69t86 29q63 0 94 -39t30 -85t-31 -85t-85 -39q-18 0 -30.5 2t-20.5 6t-16 10q10 -33 43.5 -61.5t87.5 -28.5q45 0 83.5 26.5t67.5 70.5t44.5 98.5t12.5 109.5h84v-475q0 -104 -50 -159.5t-165 -84.5l-22 78q47 12 76.5 25.5t47 33t23.5 47 t6 68.5v230q-31 -78 -91 -112t-124.5 -30t-120 41t-75.5 101q-10 29 -11 71.5zM152 580.5q0 -23.5 15 -43t46 -19.5t46 19.5t15 43t-15 43t-46 19.5t-46 -19.5t-15 -43zM629 47q37 23 49 55.5t12 85.5v504h84v-504q0 -152 -106 -211z" />
<glyph unicode="&#xe5b;" horiz-adv-x="1695" d="M80 346q0 74 31.5 129t79 90t101.5 48.5t101 3t77 -47.5t28 -100q0 -12 -5.5 -30.5t-18.5 -35t-34.5 -29t-56.5 -14.5q-47 -2 -75.5 25t-37 62.5t9 70.5t64.5 47q-55 -10 -96 -37q-35 -23 -64.5 -65.5t-29.5 -116.5q0 -104 66.5 -162.5t162.5 -58.5q49 0 93 24.5t78 63.5 t54.5 87t20.5 95q0 76 -37 131q57 0 106.5 -19.5t89 -54t68.5 -80.5t41 -100q18 10 33.5 39t27 63t15.5 67.5t0 58.5q41 -6 72.5 -23.5t54 -40t38 -49.5t23.5 -47q10 4 20.5 18.5t14.5 26.5h406v-74h-385q-16 -23 -40 -43t-49 -37q-2 16 -11 43t-22.5 53.5t-29.5 48 t-31 30.5q0 -31 -16.5 -72t-45 -78t-64.5 -65.5t-72 -34.5q0 39 -8.5 79.5t-26 77.5t-42 66t-57.5 45q2 -8 1 -14.5t-1 -14.5q0 -61 -25.5 -122.5t-70.5 -109.5t-103.5 -79t-121.5 -31t-117.5 22.5t-95.5 62.5t-64.5 93.5t-23.5 114.5zM330 465.5q0 -19.5 13 -36.5t40 -17 t40 17t13 36.5t-13 37t-40 17.5t-40 -17.5t-13 -37z" />
<glyph unicode="&#x2000;" horiz-adv-x="758" />
<glyph unicode="&#x2001;" horiz-adv-x="1516" />
<glyph unicode="&#x2002;" horiz-adv-x="758" />
<glyph unicode="&#x2003;" horiz-adv-x="1516" />
<glyph unicode="&#x2004;" horiz-adv-x="505" />
<glyph unicode="&#x2005;" horiz-adv-x="379" />
<glyph unicode="&#x2006;" horiz-adv-x="252" />
<glyph unicode="&#x2007;" horiz-adv-x="252" />
<glyph unicode="&#x2008;" horiz-adv-x="189" />
<glyph unicode="&#x2009;" horiz-adv-x="303" />
<glyph unicode="&#x200a;" horiz-adv-x="84" />
<glyph unicode="&#x200b;" />
<glyph unicode="&#x2010;" horiz-adv-x="499" d="M53 242v88h391v-88h-391z" />
<glyph unicode="&#x2011;" horiz-adv-x="499" d="M53 242v88h391v-88h-391z" />
<glyph unicode="&#x2012;" horiz-adv-x="499" d="M53 242v88h391v-88h-391z" />
<glyph unicode="&#x2013;" horiz-adv-x="1024" d="M27 293v51h968v-51h-968z" />
<glyph unicode="&#x2014;" horiz-adv-x="2048" d="M27 293v51h1988v-51h-1988z" />
<glyph unicode="&#x2018;" horiz-adv-x="266" d="M78 549v127q0 53 13 85t30.5 49t36 24.5t30.5 11.5v-49q-37 -16 -48 -50t-7 -73h55v-125h-110z" />
<glyph unicode="&#x2019;" horiz-adv-x="266" d="M78 569v45q23 2 34 15.5t16 30t6 34t1 31.5h-57v123h110v-123q0 -63 -27.5 -107.5t-82.5 -48.5z" />
<glyph unicode="&#x201c;" horiz-adv-x="397" d="M57 549v127q0 53 13.5 85t31 49t36 24.5t30.5 11.5v-49q-37 -16 -48 -50t-7 -73h55v-125h-111zM246 549v127q0 53 13 85t30.5 49t37 24.5t31.5 11.5v-47q-39 -16 -50 -50t-7 -75h55v-125h-110z" />
<glyph unicode="&#x201d;" horiz-adv-x="397" d="M59 569v47q23 2 34 15.5t16.5 30t6.5 34t1 29.5h-58v123h113v-123q0 -61 -28.5 -105.5t-84.5 -50.5zM250 569v47q23 2 34 15.5t16 30t5 34v29.5h-55v123h110v-123q0 -61 -27.5 -105.5t-82.5 -50.5z" />
<glyph unicode="&#x2022;" horiz-adv-x="348" d="M0 346.5q0 65.5 44 119.5t130 54t130 -54t44 -119.5t-44 -120t-130 -54.5t-130 54.5t-44 120z" />
<glyph unicode="&#x202f;" horiz-adv-x="303" />
<glyph unicode="&#x205f;" horiz-adv-x="379" />
<glyph unicode="&#x20ac;" horiz-adv-x="974" d="M45 301v88h131q-2 12 -2 24.5v24.5q0 14 1 30.5t3 33.5h-133v88h150q14 55 40.5 109.5t69.5 97.5t104.5 69.5t145.5 26.5q137 0 226 -75t128 -208h-108q-29 86 -88.5 138.5t-151.5 52.5q-98 0 -165.5 -57.5t-96.5 -153.5h279v-88h-295q-2 -16 -3 -31.5t-1 -32.5v-24.5 t2 -24.5h297v-88h-283q29 -104 97.5 -165.5t168.5 -61.5q98 0 160.5 62.5t97.5 191.5h107q-14 -74 -46 -138.5t-80 -111.5t-109.5 -74t-135.5 -24q-84 2 -145.5 29.5t-105.5 71.5t-71.5 101.5t-42.5 118.5h-145z" />
<glyph unicode="&#x2122;" horiz-adv-x="1001" d="M39 813v57h383v-57h-158v-430h-65v430h-160zM483 383v487h90l140 -403l139 403h90v-487h-65v381l-132 -381h-65l-131 381v-381h-66z" />
<glyph unicode="&#x25cc;" horiz-adv-x="1372" d="M334 588l92 45q-4 -25 -4 -49q0 -23 4 -43zM432 336l35 96q26 -38 63 -65zM446 838l93 -33q-39 -25 -66 -62zM639 846l47 92l45 -90q-23 2 -43 2q-24 0 -49 -4zM643 319q23 -4 45 -4q21 0 39 4l-41 -86zM840 805l100 33l-35 -97q-26 37 -65 64zM842 362q34 25 59 58 l25 -84zM952 545q4 18 4 39q0 22 -4 45l86 -45z" />
<glyph unicode="&#x25fc;" horiz-adv-x="624" d="M0 0v625h625v-625h-625z" />
<glyph unicode="&#xf700;" horiz-adv-x="659" d="M86 541q14 29 37.5 58.5t53.5 53t66 39t76 15.5q53 0 92.5 -13.5t74 -26t69.5 -16.5t78 17l4 -13q2 -4 3 -11t3 -13q4 -17 8 -35q-55 -25 -98 -20.5t-81 17.5t-75 28.5t-78 15.5q-35 0 -64.5 -17.5t-33.5 -27.5q33 -10 66 -19q29 -8 60.5 -15t55.5 -13q53 -14 84 -32.5 t45.5 -44.5t17.5 -57.5t3 -70.5v-170q0 -66 -1 -118t1 -52h-102q-6 37 -20.5 79t-31.5 77q-18 41 -37 82q-10 -29 -40.5 -46.5t-65.5 -17.5q-63 0 -94 39t-31 86t32 87t93 40q39 0 74 -20.5t53 -61.5l84 -174v166q0 41 -7 66.5t-21.5 42t-37 25.5t-53.5 19q-41 10 -87 20.5 t-85 16.5q-45 8 -90 15zM193 300q0 -24 16 -43t47 -19t47 19t16 43t-16 43t-47 19t-47 -19t-16 -43z" />
<glyph unicode="&#xf701;" d="M-827 854q10 51 39.5 96t72.5 78t93.5 49.5t103.5 9.5q80 -10 128 -46.5t75.5 -81t39 -89t17.5 -71.5q-41 14 -84 26q-37 10 -82 21.5t-92 15.5q-57 6 -111.5 6t-99.5 -4q-53 -4 -100 -10zM-721 922q29 4 62 6q29 2 61.5 2t67.5 -4q47 -4 82.5 -13.5t58.5 -17.5 q27 -11 43 -21q-8 18 -20.5 42t-33 45.5t-53 39t-82.5 23.5q-31 4 -60.5 -4t-55 -23.5t-45 -36t-25.5 -38.5z" />
<glyph unicode="&#xf702;" d="M-825 854q10 51 39.5 96t72.5 78t93.5 49.5t103.5 9.5q53 -8 91 -26.5t67 -44.5v153h77v-276q10 -29 15.5 -53.5t9.5 -40.5q-41 14 -84 26q-37 10 -82 21.5t-92 15.5q-57 6 -111.5 6t-99.5 -4q-53 -4 -100 -10zM-719 922q29 4 62 6q29 2 61.5 2t67.5 -4q47 -4 82.5 -13.5 t58.5 -17.5q27 -11 43 -21q-8 18 -20.5 42t-33 45.5t-53 39t-81.5 23.5q-31 4 -61 -4t-55.5 -23.5t-45 -36t-25.5 -38.5z" />
<glyph unicode="&#xf703;" d="M-831 854q10 51 39.5 96t72.5 78t93.5 49.5t103.5 9.5q14 -2 25.5 -4t23.5 -6q0 35 28.5 68t79.5 33q55 0 83 -33t28 -78q0 -39 -19.5 -67.5t-48.5 -36.5q29 -45 41.5 -90.5t18.5 -73.5q-41 14 -84 26q-37 10 -82 21.5t-92 15.5q-57 6 -111.5 6t-99.5 -4q-53 -4 -100 -10 zM-725 922q29 4 61 6q29 2 62 2t67 -4q47 -4 83 -13.5t59 -17.5q27 -11 43 -21q-8 18 -20.5 42t-33 45.5t-53 39t-82.5 23.5q-31 4 -60.5 -4t-55 -23.5t-45 -36t-25.5 -38.5zM-414 1071.5q0 -18.5 13.5 -35t38.5 -16.5t38 16.5t13 35t-13.5 34.5t-37.5 16q-25 0 -38.5 -16 t-13.5 -34.5z" />
<glyph unicode="&#xf704;" d="M-825 854q10 51 39.5 96t72.5 78t93.5 49.5t103.5 9.5h6v82h76v-104q23 -10 41 -22.5t35 -26.5v153h77v-276q10 -29 15.5 -53.5t9.5 -40.5q-41 14 -84 26q-37 10 -82 21.5t-92 15.5q-57 6 -111.5 6t-99.5 -4q-53 -4 -100 -10zM-719 922q29 4 62 6q29 2 61.5 2t67.5 -4 q47 -4 82.5 -13.5t58.5 -17.5q27 -11 43 -21q-8 18 -20.5 42t-33 45.5t-53 39t-81.5 23.5q-31 4 -61 -4t-55.5 -23.5t-45 -36t-25.5 -38.5z" />
<glyph unicode="&#xf705;" d="M-369 821v305h76v-305h-76z" />
<glyph unicode="&#xf706;" d="M-690 1022q0 47 30.5 80t84.5 33q59 0 88.5 -36t29.5 -81q0 -35 -10 -63.5t-20 -51.5q-14 -25 -31 -45q53 2 99 23.5t81 57.5t54.5 84t19.5 101h82q0 -68 -27 -128t-71 -105t-104 -70.5t-128 -25.5q-37 0 -71.5 3t-65.5 11q18 12 37 29q16 14 30.5 34.5t24.5 47.5 q-8 -2 -16 -5q-20 -4 -41 5q-33 10 -54.5 34.5t-21.5 67.5zM-629 1023q0 -19 13.5 -36.5t40.5 -17.5t40 17.5t13 36.5t-13.5 36.5t-39.5 17.5q-27 0 -40.5 -17.5t-13.5 -36.5z" />
<glyph unicode="&#xf707;" d="M-725 961q4 53 32.5 93t88.5 40q37 0 56.5 -13.5t23.5 -19.5q6 6 26.5 19.5t51.5 13.5q57 0 80.5 -39t23.5 -94q0 -37 -7 -55.5t-18 -33.5q10 6 33 21.5t37 38.5q39 53 18 143l72 2q4 -35 -2 -87t-39 -99q-27 -37 -64.5 -53.5t-72.5 -22.5q-41 -8 -86 -4q10 14 34.5 46 t28.5 91v24.5t-5 27t-16 21.5t-32 9q-12 0 -23.5 -6t-19.5 -12q-8 -8 -16 -19q-8 10 -19 19q-10 6 -23 12t-34 6q-51 0 -55 -61q4 4 16 7t31 3q86 0 86 -90q0 -35 -22.5 -60.5t-63.5 -23.5q-31 0 -53.5 14.5t-38 37t-23.5 49t-6 55.5zM-653 891.5q0 -17.5 12 -30.5t35 -13 t34 13t11 30.5t-11.5 31t-33.5 13.5q-23 0 -35 -13.5t-12 -31z" />
<glyph unicode="&#xf708;" d="M-573 956v68h137v137h76v-137h135v-68h-135v-135h-76v135h-137z" />
<glyph unicode="&#xf709;" d="M-494 928q-2 53 27 94t78 63q39 18 88 21.5t92 9.5t73 22.5t27 63.5h72q2 -29 -7 -50.5t-22.5 -36.5t-31 -25.5t-31.5 -16.5q-31 -12 -64.5 -17t-65.5 -8.5t-58.5 -7.5t-40.5 -16q35 -2 62.5 -28.5t27.5 -67.5q0 -47 -33 -79t-80 -32t-79 32t-34 79zM-434 929.5 q0 -18.5 13 -34.5t40 -16q25 0 38 16t13 34.5t-13 35t-38 16.5q-27 0 -40 -16.5t-13 -35z" />
<glyph unicode="&#xf70a;" d="M-188 821v305h77v-305h-77z" />
<glyph unicode="&#xf70b;" d="M-547 1022q0 47 31 80t84 33q59 0 89 -36t30 -81q0 -35 -10.5 -63.5t-20.5 -51.5q-14 -25 -31 -45q51 4 95 26.5t77 58.5t51.5 82t18.5 99h82q0 -68 -25.5 -127t-68.5 -103t-100.5 -70.5t-123.5 -28.5q-37 -2 -71.5 2t-65.5 12q18 12 37 29q16 14 30.5 34.5t24.5 47.5 q-8 -2 -16 -5q-20 -4 -41 5q-33 10 -54.5 34.5t-21.5 67.5zM-485 1023q0 -19 13 -36.5t40 -17.5t40 17.5t13 36.5t-13.5 36.5t-39.5 17.5q-27 0 -40 -17.5t-13 -36.5z" />
<glyph unicode="&#xf70c;" d="M-565 961q4 53 32.5 93t88.5 40q37 0 56 -13.5t23 -19.5q6 6 27 19.5t51 13.5q57 0 81 -39t24 -94q0 -37 -7.5 -55.5t-17.5 -33.5q10 6 32.5 21.5t37.5 38.5q39 53 18 143l72 2q4 -35 -2 -87t-39 -99q-27 -37 -64.5 -53.5t-72.5 -22.5q-41 -8 -86 -4q10 14 34.5 46 t28.5 91v24.5t-5 27t-16.5 21.5t-31.5 9q-12 0 -23.5 -6t-19.5 -12q-8 -8 -16 -19q-8 10 -19 19q-10 6 -23.5 12t-33.5 6q-51 0 -56 -61q4 4 16.5 7t31.5 3q86 0 86 -90q0 -35 -22.5 -60.5t-63.5 -23.5q-59 2 -92 51t-29 105zM-494 891.5q0 -17.5 12.5 -30.5t35.5 -13t34 13 t11 30.5t-11.5 31t-33.5 13.5q-23 0 -35.5 -13.5t-12.5 -31z" />
<glyph unicode="&#xf70d;" d="M-430 956v68h137v137h76v-137h135v-68h-135v-135h-76v135h-137z" />
<glyph unicode="&#xf70e;" d="M-453 928q-2 53 27 94t78 63q39 18 88 21.5t92 9.5t72.5 22.5t27.5 63.5h72q2 -29 -7 -50.5t-22.5 -36.5t-31 -25.5t-31.5 -16.5q-31 -12 -65.5 -17t-66.5 -8.5t-57.5 -7.5t-39.5 -16q35 -2 62.5 -28.5t27.5 -67.5q0 -47 -33 -79t-80 -32t-79 32t-34 79zM-393 929.5 q0 -18.5 13 -34.5t40 -16q25 0 38 16t13 34.5t-13 35t-38 16.5q-27 0 -40 -16.5t-13 -35z" />
<glyph unicode="&#xf70f;" horiz-adv-x="1009" d="M43 578q31 35 72 63q35 25 89 45.5t128 20.5q55 0 101 -9.5t81 -32t54.5 -60.5t19.5 -95v-436h168q41 0 52 12t11 47v559h84v-559q0 -41 -6 -67.5t-22.5 -41t-45 -19.5t-73.5 -5h-338v74h84v436q0 55 -32 87t-81 41t-108.5 -3t-114.5 -43q25 -8 49 -21q23 -10 48.5 -26.5 t51.5 -38.5q-33 -4 -57 -19q-23 -14 -40 -40.5t-17 -79.5l-2 -138q14 8 45 9q59 0 88.5 -39t29.5 -86t-29.5 -86t-88.5 -39q-55 0 -92 33.5t-37 93.5v247q0 70 28.5 104t57.5 44q-20 14 -43 27q-23 10 -51.5 21t-63.5 20zM176 113.5q0 -23.5 16.5 -43t47.5 -19.5t47 19.5 t16 43t-16.5 43t-46.5 19.5q-31 0 -47.5 -19.5t-16.5 -43z" />
<glyph unicode="&#xf710;" d="M-506 969q-10 47 15.5 94t91.5 53q49 4 80.5 -18.5t44 -57t2 -73.5t-44.5 -64q25 -6 49 -9t51 1q92 10 161.5 68.5t86.5 146.5l75 -27q-10 -45 -37.5 -89t-70.5 -79.5t-96.5 -60.5t-112.5 -29q-68 -6 -130 12.5t-116 53.5q-16 14 -29.5 32.5t-19.5 45.5zM-448.5 991.5 q2.5 -22.5 18.5 -40t47 -13.5q29 2 41 21.5t10 42t-18.5 40t-44.5 15.5q-29 -2 -42.5 -22.5t-11 -43z" />
<glyph unicode="&#xf711;" d="M-510 946q0 47 32 86t95 39t94 -39t31 -86t-31 -86t-94 -39t-95 39t-32 86zM-453 945.5q0 -25.5 17.5 -47t52.5 -21.5t52.5 21.5t17.5 47t-17.5 47t-52.5 21.5t-52.5 -21.5t-17.5 -47z" />
<glyph unicode="&#xf712;" d="M-706.5 970q-4.5 34 8.5 62q23 55 78 71.5t135 6.5q45 -4 82.5 -5t64.5 7t40 27.5t9 54.5h64q6 -92 -60.5 -124t-220.5 -15q-29 2 -59.5 0t-51 -15.5t-25.5 -41t17 -74.5q8 16 21 28q10 10 27.5 20.5t44.5 10.5q20 0 38.5 -7t32.5 -18q16 -10 31 -22q10 29 32.5 48.5 t57.5 19.5q45 0 68.5 -29t23.5 -63.5t-23.5 -63.5t-68.5 -27q-31 0 -56.5 16.5t-49 35t-44 33t-42.5 12.5q-29 -4 -44.5 -19.5t-23.5 -34.5q-8 -23 -12 -47q-23 10 -43.5 35t-33.5 54.5t-17.5 63.5zM-387 913.5q0 -16.5 12 -31t35 -14.5t34 14.5t11 31t-11 30.5t-34 14 t-35 -14t-12 -30.5z" />
<glyph unicode="&#xf713;" d="M-356 1264v237h75v-237h-75z" />
<glyph unicode="&#xf714;" d="M-543 1413q0 43 30 73t77 30q55 0 82.5 -33t27.5 -74q0 -35 -9 -61.5t-19 -47.5q-12 -23 -29 -40q49 2 92 22.5t75 54t50.5 77.5t18.5 93h75q0 -63 -24.5 -119.5t-65.5 -97.5t-96 -65.5t-119 -24.5q-72 0 -127 14q18 10 35 27q14 14 27.5 32.5t21.5 43.5q-6 -4 -14 -4 q-14 -2 -39 4q-29 8 -49.5 31.5t-20.5 64.5zM-485 1413.5q0 -18.5 12 -34t37 -15.5t37 15.5t12 34t-12.5 33.5t-36.5 15q-25 0 -37 -15t-12 -33.5z" />
<glyph unicode="&#xf715;" d="M-573 1364q4 49 30.5 86t79.5 37q39 0 57.5 -16.5t20.5 -16.5q8 8 18 16q10 6 22.5 11.5t31.5 5.5q51 0 72.5 -35t21.5 -88q0 -39 -8.5 -56.5t-18.5 -31.5q14 8 29 16q10 8 22.5 18.5t20.5 24.5q37 55 18 135l64 3q4 -33 -3 -82.5t-36 -90.5q-25 -35 -58.5 -50t-66.5 -21 q-37 -8 -78 -4q10 16 34 44.5t26 82.5q2 23 -5.5 52.5t-46.5 29.5q-14 0 -23 -6.5t-18 -14.5q-8 -8 -14 -18q-2 0 -18.5 19.5t-55.5 19.5q-25 0 -40 -17.5t-13 -46.5l12 6q6 2 14.5 4t18.5 2q39 0 60.5 -23.5t21.5 -62.5q0 -29 -23.5 -53t-58.5 -22q-53 2 -84 46t-26 97z M-508 1300.5q0 -16.5 11 -31t34 -14.5t34 14.5t11 31t-11 31t-34 14.5t-34 -14.5t-11 -31z" />
<glyph unicode="&#xf716;" d="M-483 1327v68h127v102h75v-102h129v-68h-129v-102h-75v102h-127z" />
<glyph unicode="&#xf717;" d="M-438 1343q10 90 96 113q37 8 77 4t73.5 -7t57 6t30.5 46l57 -10q-6 -47 -36 -66.5t-54 -23.5q-39 -6 -77 0t-69.5 7t-57.5 -9t-40 -47q6 8 16 16q10 6 23.5 11.5t34.5 0.5q43 -6 60.5 -36.5t12 -64.5t-32 -58.5t-71.5 -18.5q-53 6 -78.5 49t-21.5 88zM-362.5 1303.5 q-2.5 -15.5 5 -29.5t27.5 -17q20 -4 32.5 7.5t15.5 27t-5 29.5t-28 18q-20 2 -32.5 -9t-15 -26.5z" />
<glyph unicode="&#xf718;" d="M-356 -529.5q0 48.5 30.5 87.5t94.5 39q53 0 89 -33t36 -92v-301h-87v180q-18 -6 -40 -6q-61 0 -92 38.5t-31 87zM-295 -530.5q0 -24.5 16.5 -44t47.5 -19.5t47 19.5t16 44t-16.5 44t-46.5 19.5q-31 0 -47.5 -19.5t-16.5 -44z" />
<glyph unicode="&#xf719;" d="M-549 -529.5q0 48.5 31 87.5t94 39q53 0 90 -33t37 -92v-101q0 -37 -1 -67.5t1 -30.5q0 -23 15.5 -37t37.5 -14q20 0 35.5 14t15.5 37v313h87v-313q0 -57 -43.5 -88t-96.5 -31t-95 31t-42 88v78q-10 -4 -15 -5t-28 -1q-61 0 -92 38.5t-31 87zM-487 -530.5q0 -24.5 16 -44 t47 -19.5q33 0 48.5 19.5t15.5 44t-15.5 44t-48.5 19.5q-31 0 -47 -19.5t-16 -44z" />
<glyph unicode="&#xf71a;" d="M-250 -450.5q0 24.5 17.5 46t52.5 21.5q33 0 50 -21.5t17 -46t-17 -46t-50 -21.5q-35 0 -52.5 21.5t-17.5 46z" />
<glyph unicode="&#xf71d;" horiz-adv-x="884" d="M43 576.5q0 48.5 31.5 87t93.5 38.5q59 0 92 -36.5t33 -90.5v-27v-65v-85v-85v-65v-27l205 443l194 -443v357q-66 -6 -96.5 30.5t-30.5 83.5t32 77t83 30t82 -37t24 -82q16 10 31 25q12 12 24.5 29.5t20.5 43.5l62 -35q-12 -33 -32 -58.5t-41.5 -43.5t-40.5 -29.5 t-32 -15.5v-596h-86v8t-1 21.5t-3 29t-8 27.5l-182 403l-187 -403q-6 -12 -10 -27.5t-6 -27.5q-2 -16 -2 -31h-84v459q-14 -8 -41 -8q-61 0 -93 38.5t-32 87zM104 575.5q0 -24.5 16.5 -44t47.5 -19.5q33 0 48 19.5t15 44t-15 44t-48 19.5q-31 0 -47.5 -19.5t-16.5 -44z M623 690.5q0 -20.5 13 -37t40 -16.5t40 16.5t13 37t-13.5 36.5t-39.5 16q-27 0 -40 -16t-13 -36.5z" />
<glyph unicode="&#xf881;" horiz-adv-x="1142" d="M43 545q35 43 82 80q41 31 99.5 56.5t133.5 25.5q78 0 140.5 -25t97.5 -76q31 41 79 71t126 30q102 0 168.5 -53.5t66.5 -151.5v-864h-84v868q0 68 -43 102.5t-108 34.5q-63 0 -106.5 -34t-65.5 -85q2 -10 3 -21t1 -22v-843h-84v843q0 74 -56.5 116t-134.5 42 q-47 0 -100 -18.5t-94 -53.5q25 -6 49 -16q23 -10 47.5 -24.5t50.5 -37.5q-33 -8 -55 -26q-20 -16 -37.5 -43t-17.5 -72l-2 -119q14 8 45 9q59 0 88.5 -39t29.5 -86t-29.5 -86t-88.5 -39q-55 0 -92 33.5t-37 93.5v229q0 72 26.5 100.5t55.5 40.5q-18 14 -41 27 q-20 10 -49 19.5t-64 13.5zM176 113.5q0 -23.5 16.5 -43t47.5 -19.5t47 19.5t16 43t-16.5 43t-46.5 19.5q-31 0 -47.5 -19.5t-16.5 -43z" />
<glyph unicode="&#xf882;" horiz-adv-x="1226" d="M33 113q0 47 31.5 86t95.5 39q25 0 41 -9v115q0 72 25.5 100.5t54.5 40.5q-18 14 -41 27q-20 10 -49 19.5t-64 13.5q37 43 84 80q41 31 98.5 56.5t132.5 25.5q78 0 140.5 -25t99.5 -76q29 43 77 72t126 29q102 0 168.5 -53.5t66.5 -151.5v-864h-84v868q0 68 -43 102.5 t-108 34.5q-61 0 -104.5 -32.5t-65.5 -84.5q2 -10 3 -21t1 -24v-843h-86v843q0 78 -56.5 118t-134.5 40q-47 0 -99 -18.5t-93 -53.5l12 -4t33.5 -13t48.5 -23.5t51 -37.5q-33 -8 -55 -26q-23 -16 -39 -43t-16 -72v-237q0 -47 -31 -85t-94 -38t-95 39t-32 86zM96 113.5 q0 -23.5 16.5 -43t47.5 -19.5t47 19.5t16 43t-16.5 43t-46.5 19.5q-31 0 -47.5 -19.5t-16.5 -43z" />
<glyph d="M-377 991q2 25 13.5 42.5t15.5 25.5q-4 6 -13.5 24.5t-7.5 42.5q4 51 39 83t94 28l-4 -74q-27 4 -45 -5t-20 -36q-2 -16 3 -29.5t11 -21.5q8 -10 17 -16q-10 -8 -19 -17q-8 -8 -14 -20t-6 -29q-2 -29 16 -38t45 -11l-4 -70q-55 4 -89 38t-32 83z" />
<glyph horiz-adv-x="604" d="M-522 946q0 47 31.5 86t95.5 39q63 0 94 -39t31 -86t-31 -86t-94 -39t-95 39t-32 86zM-461 945.5q0 -23.5 16.5 -44t49.5 -20.5t48 20.5t15 44t-15 44t-48 20.5t-49.5 -20.5t-16.5 -44zM27 553q14 31 34.5 58.5t48 49t64.5 34t88 12.5q102 0 169 -53.5t67 -151.5v-502 h-84v506q0 68 -43 102.5t-109 34.5q-63 0 -106 -34t-66 -87z" />
<glyph horiz-adv-x="604" d="M-522 946q0 47 31.5 86t95.5 39q63 0 94 -39t31 -86t-31 -86t-94 -39t-95 39t-32 86zM-461 945.5q0 -23.5 16.5 -44t49.5 -20.5t48 20.5t15 44t-15 44t-48 20.5t-49.5 -20.5t-16.5 -44zM27 553q14 31 34.5 58.5t48 49t64.5 34t88 12.5q102 0 169 -53.5t67 -151.5v-502 h-84v506q0 68 -43 102.5t-109 34.5q-63 0 -106 -34t-66 -87z" />
<glyph d="M-696 854q10 51 39.5 96t72.5 78t93.5 49.5t103.5 9.5q53 -8 91 -26.5t67 -44.5v153h77v-276q10 -29 15.5 -53.5t9.5 -40.5q-41 14 -84 26q-37 10 -82 21.5t-92 15.5q-57 6 -111.5 6t-99.5 -4q-53 -4 -100 -10zM-590 922q29 4 62 6q29 2 61.5 2t67.5 -4q47 -4 82.5 -13.5 t58.5 -17.5q27 -11 43 -21q-8 18 -20.5 42t-33 45.5t-53 39t-81.5 23.5q-31 4 -61 -4t-55.5 -23.5t-45 -36t-25.5 -38.5z" />
<glyph d="M-696 854q10 51 39.5 96t72.5 78t93.5 49.5t103.5 9.5h6v82h76v-104q23 -10 41 -22.5t35 -26.5v153h77v-276q10 -29 15.5 -53.5t9.5 -40.5q-41 14 -84 26q-37 10 -82 21.5t-92 15.5q-57 6 -111.5 6t-99.5 -4q-53 -4 -100 -10zM-590 922q29 4 62 6q29 2 61.5 2t67.5 -4 q47 -4 82.5 -13.5t58.5 -17.5q27 -11 43 -21q-8 18 -20.5 42t-33 45.5t-53 39t-81.5 23.5q-31 4 -61 -4t-55.5 -23.5t-45 -36t-25.5 -38.5z" />
<glyph d="M-229 1264v237h77v-237h-77z" />
<glyph d="M-356 1327v68h127v102h77v-102h129v-68h-129v-102h-77v102h-127z" />
</font>
</defs>
</svg>
